<?xml version="1.0" encoding="UTF-8"?><svg xmlns="http://www.w3.org/2000/svg" width="100%" height="100%"><defs><font id="web" horiz-adv-x="1414"><!--



NOTICE: This font software is the valuable property 
of Webtype LLC, The Font Bureau, Webtype and/or its 
suppliers and its use by you is covered under the terms 
of the Web Font license agreement between you and Webtype 
LLC. You may ONLY use this font software with the licensed 
web site. Except as specifically permitted by the license, 
you may not copy this font software. If you have any 
questions, please contact Webtype.com. 

For more information, please visit http://www.webtype.com/store/license/?id=23

Licensed to: houstonchronicle.com

Serial number: SH-945
--><font-face font-family="" units-per-em="2048" panose-1="2 0 5 5 5 0 0 2 0 4" ascent="2241" descent="-473" alphabetic="0"/><missing-glyph horiz-adv-x="614"/><glyph unicode=" " horiz-adv-x="614"/><glyph unicode="!" horiz-adv-x="797" d="M662 1507L569 473H227L135 1507H662ZM641 0H156V389H641V0Z"/><glyph unicode="&quot;" horiz-adv-x="1171" d="M1094 1507L1024 924H692L623 1507H1094ZM549 1507L479 924H147L78 1507H549Z"/><glyph unicode="#" horiz-adv-x="1409" d="M1331 322H1020L928 -207L629 -162L715 322H539L446 -207L147 -162L233 322H78V598H281L313 776H78V1053H362L463 1628L762 1583L668 1053H844L944 1628L1243 1583L1149 1053H1331V776H1100L1069 598H1331V322ZM793 776H618L588 598H762L793 776Z"/><glyph unicode="$" horiz-adv-x="1556" d="M1440 457Q1440 345 1415 265T1332 130T1179 43T942 -4V-219H621V-8Q527 -5 449 1T310 16T206 31T141 43V481H541V311Q579 302 636 298T762 293Q843 293 894 297T974 316T1013 360T1024 438Q1024 484 1015 512T978 555T902 577T774 588Q647 594 551 606T383 641T264 699T188 786T147 909T135 1075Q135 1190 164 1271T254 1406T405 1489T621 1530V1700H950V1528Q1016 1524 1078 1518T1194 1504T1289 1488T1354 1473V1044H954V1221Q943 1223 920 1225T870 1229T815 1232T766 1233Q707 1233 665 1229T597 1210T559 1166T547 1087Q547 1042 558 1014T599 970T679 947T809 936Q940 930 1038 919T1206 887T1321 833T1393 748T1430 625T1440 457Z"/><glyph unicode="%" horiz-adv-x="2689" d="M2617 487Q2617 327 2585 227T2488 71T2328 -6T2107 -27Q1982 -27 1888 -7T1730 68T1634 223T1602 483Q1602 643 1634 743T1731 899T1891 976T2111 997Q2236 997 2331 977T2489 902T2585 747T2617 487ZM1087 1020Q1087 860 1055 760T958 604T798 527T578 506Q453 506 358 526T200 601T104 756T72 1016Q72 1176 104 1276T201 1432T361 1509T582 1530Q707 1530 801 1510T959 1435T1055 1280T1087 1020ZM1778 1444L1225 -66L907 49L1460 1559L1778 1444ZM733 979V1053Q733 1123 727 1166T703 1234T656 1266T578 1274Q530 1274 501 1267T455 1236T432 1170T426 1057V983Q426 912 432 868T456 798T504 764T582 754Q630 754 659 762T705 796T727 864T733 979ZM2263 446V520Q2263 591 2257 634T2233 701T2185 733T2107 741Q2059 741 2030 734T1984 703T1962 638T1956 524V451Q1956 380 1962 336T1986 266T2033 231T2111 221Q2159 221 2188 229T2234 263T2257 331T2263 446Z"/><glyph unicode="&amp;" horiz-adv-x="1778" d="M1759 0H1331L1147 166Q1121 118 1093 83T1026 25T937 -9T813 -20Q773 -20 721 -18T612 -11T496 5T381 30T279 66T199 115Q142 164 120 258T98 477Q98 560 119 619T183 722T286 793T428 842Q377 908 347 977T317 1126Q317 1234 350 1310T454 1436T636 1509T905 1532Q1005 1532 1090 1528T1245 1517T1368 1503T1456 1489V1044H1057V1231Q1048 1234 1027 1236T979 1239T926 1242T877 1243Q824 1243 792 1235T741 1211T716 1172T709 1118Q709 1089 721 1062T758 1005T822 937T918 850L1073 713L1151 928H1702V629H1350L1303 510L1522 315H1759V0ZM924 367Q924 367 913 378T882 406T838 445T788 490Q728 544 653 612Q636 628 621 643T588 672Q549 658 527 640T495 597T482 544T479 477Q479 448 481 428T488 391T500 363T520 338Q537 321 571 309T645 288T728 275T803 270Q822 270 838 274T868 289T895 319T924 367Z"/><glyph unicode="'" horiz-adv-x="627" d="M549 1507L479 924H147L78 1507H549Z"/><glyph unicode="(" horiz-adv-x="918" d="M842 -358Q683 -358 565 -342T361 -286T219 -177T131 -2T85 253T72 600Q72 799 85 948T130 1207T219 1387T360 1501T564 1561T842 1579V1264Q744 1264 675 1254T561 1218T489 1144T450 1023T433 845T430 600Q430 460 433 357T449 182T489 65T560 -6T675 -41T842 -51V-358Z"/><glyph unicode=")" horiz-adv-x="918" d="M846 600Q846 401 833 253T788 -1T699 -177T558 -286T354 -342T76 -358V-51Q174 -51 243 -42T357 -7T429 64T468 182T484 357T487 600Q487 741 484 845T468 1023T429 1144T358 1217T243 1254T76 1264V1579Q235 1579 353 1562T557 1502T699 1388T787 1207T833 949T846 600Z"/><glyph unicode="*" horiz-adv-x="1266" d="M1188 805L1053 571L745 776L766 410H496L522 778L213 571L78 805L410 969L80 1133L215 1368L522 1161L496 1532H766L743 1161L1051 1368L1186 1133L856 969L1188 805Z"/><glyph unicode="+" horiz-adv-x="1106" d="M1020 381H700V74H406V381H86V657H406V967H700V657H1020V381Z"/><glyph unicode="," horiz-adv-x="797" d="M657 244L356 -279L152 -176L246 481L657 244Z"/><glyph unicode="-" horiz-adv-x="799" d="M713 455H86V745H713V455Z"/><glyph unicode="." horiz-adv-x="797" d="M641 0H156V389H641V0Z"/><glyph unicode="/" horiz-adv-x="909" d="M928 1536L309 -164L-8 -47L610 1653L928 1536Z"/><glyph unicode="0" horiz-adv-x="1552" d="M1481 758Q1481 533 1443 383T1320 142T1101 13T774 -25Q582 -25 449 12T231 139T110 379T72 754Q72 979 110 1128T233 1368T451 1495T778 1532Q970 1532 1104 1496T1321 1370T1443 1132T1481 758ZM1057 651V856Q1057 964 1044 1033T999 1142T912 1197T774 1212Q691 1212 638 1198T553 1144T509 1037T496 860V655Q496 547 509 476T554 363T640 304T778 287Q861 287 915 303T1000 360T1044 472T1057 651Z"/><glyph unicode="1" horiz-adv-x="967" d="M891 0H96V315H295V1184H76V1507H719V315H891V0Z"/><glyph unicode="2" horiz-adv-x="1466" d="M1360 0H78V391Q165 445 236 488T369 569T489 644T606 719Q684 770 739 806T830 870T887 920T918 966T931 1017T934 1083Q934 1128 925 1155T890 1198T815 1218T686 1223Q665 1223 638 1222T585 1220T535 1216T500 1210V1044H106V1475Q133 1481 174 1488T265 1501T370 1513T482 1523T591 1529T690 1532Q822 1532 921 1525T1092 1498T1211 1447T1286 1365T1325 1247T1337 1087Q1337 1025 1330 977T1303 886T1247 803T1151 716T1007 613T805 483Q755 451 713 426T632 377T555 333T473 287H967V481H1360V0Z"/><glyph unicode="3" horiz-adv-x="1477" d="M1389 502Q1389 417 1382 357T1359 254T1319 181T1260 125Q1205 85 1119 58T902 10T591 -25T170 -55L143 274Q338 286 477 295T710 316T861 343T946 379Q974 401 982 433T991 504Q991 542 983 571T946 623Q916 644 870 657T775 679T677 690T594 696V940L932 1229H465V1044H72V1507H1309V1188L979 903Q1011 898 1048 889T1124 868T1197 839T1260 803Q1299 774 1324 742T1363 672T1383 592T1389 502Z"/><glyph unicode="4" horiz-adv-x="1507" d="M1430 0H655V315H854V451H57V815L739 1618L1040 1366L457 729H854V975H1257V729H1430V451H1257V315H1430V0Z"/><glyph unicode="5" horiz-adv-x="1470" d="M1384 502Q1384 411 1377 351T1355 249T1315 179T1255 125Q1201 85 1115 58T898 10T587 -25T166 -55L139 274Q334 286 473 295T706 316T857 343T942 379Q970 401 978 430T987 498Q987 536 979 564T942 614Q913 636 861 651T713 677T471 699T106 721L129 1507H1290V1044H897V1221H475L467 981Q599 976 718 969T938 947T1120 909T1255 844Q1291 818 1316 785T1356 709T1377 616T1384 502Z"/><glyph unicode="6" horiz-adv-x="1477" d="M1415 453Q1415 374 1404 309T1363 190T1285 97T1161 31T982 -9T739 -23Q588 -23 480 -7T298 45T179 140T111 286T80 488T72 754V760Q72 871 79 959T108 1116T165 1239T258 1333Q304 1366 389 1395T594 1452T866 1505T1200 1559L1262 1225Q1073 1196 942 1175T725 1135T589 1098T514 1059Q497 1044 488 1027T476 988T472 941T471 887V881Q481 883 505 887T563 895T637 903T717 910T796 916T866 918Q989 918 1077 913T1227 892T1325 845T1382 762T1408 635T1415 453ZM1018 442Q1018 499 1014 536T991 594T934 624T827 633Q718 633 625 626T471 608V541Q471 464 481 412T522 329T605 284T743 270Q818 270 870 278T955 306T1003 359T1018 442Z"/><glyph unicode="7" horiz-adv-x="1454" d="M1395 1155L733 -68L360 119L989 1225H471V1044H72V1507H1395V1155Z"/><glyph unicode="8" horiz-adv-x="1567" d="M1495 418Q1495 300 1462 217T1348 80T1127 2T776 -23Q565 -23 429 1T213 79T103 216T72 418Q72 490 82 542T124 635T212 711T365 786Q292 821 248 855T179 929T147 1015T139 1120Q139 1239 169 1318T273 1445T470 1512T778 1532Q963 1532 1091 1513T1298 1446T1413 1319T1448 1120Q1448 1068 1445 1027T1420 950T1354 879T1227 803Q1315 765 1368 729T1449 649T1486 550T1495 418ZM1079 418Q1079 452 1075 476T1058 517T1021 549T958 578T863 610T727 653Q704 661 682 668T639 682Q576 653 541 631T490 581T470 515T467 418Q467 377 483 350T537 308T633 286T776 279Q864 279 922 285T1015 307T1064 350T1079 418ZM1063 1120Q1063 1155 1044 1175T988 1206T898 1220T776 1223Q709 1223 665 1220T594 1207T556 1176T545 1120Q545 1081 555 1060T595 1024T677 994T813 950L936 909Q982 931 1007 948T1045 988T1060 1041T1063 1120Z"/><glyph unicode="9" horiz-adv-x="1477" d="M1405 748Q1405 637 1397 550T1369 393T1312 271T1219 176Q1173 143 1088 114T883 58T610 4T276 -49L215 276Q404 304 535 325T752 366T888 403T963 442Q980 457 989 475T1001 516T1005 565T1006 621V629Q991 625 945 619T840 606T719 596T610 592Q487 592 399 597T249 618T151 665T94 748T68 875T61 1057Q61 1135 72 1200T113 1319T191 1412T315 1478T494 1518T737 1532Q888 1532 996 1516T1178 1464T1297 1369T1366 1224T1397 1022T1405 756V748ZM1006 901V969Q1006 1046 996 1096T955 1177T872 1219T733 1231Q659 1231 607 1224T522 1199T474 1149T459 1067Q459 1010 463 973T486 915T543 886T649 877Q759 877 852 883T1006 901Z"/><glyph unicode=":" horiz-adv-x="797" d="M641 606H156V995H641V606ZM641 0H156V389H641V0Z"/><glyph unicode=";" horiz-adv-x="797" d="M641 606H156V995H641V606ZM657 244L356 -279L152 -176L246 481L657 244Z"/><glyph unicode="&lt;" horiz-adv-x="989" d="M856 193L657 -6L88 565L657 1137L856 938L471 565L856 193Z"/><glyph unicode="=" horiz-adv-x="1065" d="M948 602H117V856H948V602ZM948 201H117V455H948V201Z"/><glyph unicode="&gt;" horiz-adv-x="989" d="M901 565L332 -6L133 193L518 565L133 938L332 1137L901 565Z"/><glyph unicode="?" horiz-adv-x="1417" d="M1358 1122Q1358 1064 1352 1020T1325 937T1270 865T1176 794T1035 715T836 618V473H453V743Q573 802 655 842T791 910T874 958T916 1001T932 1050T934 1118Q934 1146 923 1167T884 1201T808 1220T684 1227Q613 1227 561 1220T477 1204V956H78V1466Q115 1476 175 1487T313 1509T485 1525T684 1532Q889 1532 1020 1512T1226 1444T1329 1318T1358 1122ZM883 0H397V389H883V0Z"/><glyph unicode="@" horiz-adv-x="2236" d="M2165 508Q2165 421 2158 348T2122 216T2034 111T1871 35T1611 -11T1229 -27L1202 106Q1177 88 1136 66T1045 26T945 -5T848 -18Q733 -18 656 6T539 91T497 258T528 524Q557 665 588 759T662 911T768 992T922 1016Q964 1016 1018 1005T1130 977T1240 937T1335 891L1389 993H1747L1583 195Q1707 195 1778 214T1887 273T1934 372T1944 512Q1944 653 1935 759T1897 942T1812 1069T1665 1150T1439 1192T1118 1204Q931 1204 798 1191T572 1146T425 1061T341 930T302 744T293 496Q293 355 302 248T341 61T426 -71T573 -156T798 -201T1118 -215H1411V-406H1118Q881 -406 712 -384T427 -316T240 -197T133 -24T84 205T72 494Q72 654 84 783T133 1012T240 1185T426 1304T712 1373T1118 1395Q1354 1395 1524 1374T1810 1308T1996 1193T2103 1024T2153 797T2165 508ZM1276 653Q1253 668 1224 679T1165 699T1107 711T1055 715Q1031 715 1015 711T985 687T960 627T932 516Q914 434 909 385T911 309T940 275T997 266Q1029 266 1063 274T1129 294T1184 319T1221 344L1276 653Z"/><glyph unicode="A" horiz-adv-x="1849" d="M1790 0H987V295H1212L1149 455H621L555 295H764V0H59V315H197L684 1518H1155L1647 315H1790V0ZM1063 688L1028 776Q1013 815 993 868T952 977T915 1080T887 1155Q877 1127 859 1078T819 973T778 864T743 776L709 688H1063Z"/><glyph unicode="B" horiz-adv-x="1653" d="M1573 424Q1573 306 1543 225T1445 94T1269 22T1004 0H76V315H213V1184H76V1507H963Q1102 1507 1208 1493T1387 1438T1495 1325T1532 1135Q1532 1046 1516 986T1468 885T1392 822T1292 784Q1347 773 1397 751T1487 688T1549 583T1573 424ZM1149 465Q1149 555 1110 599T1004 643H631V291H1004Q1070 291 1109 333T1149 465ZM1108 1053Q1108 1097 1098 1127T1069 1175T1023 1200T963 1208H631V891H963Q1029 891 1068 927T1108 1053Z"/><glyph unicode="C" horiz-adv-x="1579" d="M1462 43Q1435 35 1373 25T1225 5T1036 -11T821 -18Q696 -18 592 -4T405 43T260 133T156 276T93 480T72 754Q72 988 121 1138T265 1374T501 1493T825 1526Q936 1526 1039 1520T1227 1503T1373 1483T1462 1464V956H1063V1188Q1045 1190 1017 1192T955 1196T886 1199T821 1200Q726 1200 666 1176T572 1105T526 985T514 817V698Q514 605 526 531T572 406T666 327T825 299Q856 299 891 299T958 301T1017 305T1063 311V580H1462V43Z"/><glyph unicode="D" horiz-adv-x="1679" d="M1608 754Q1608 586 1588 465T1526 260T1421 125T1274 45T1083 8T848 -2H76V313H213V1184H76V1507H848Q976 1507 1082 1498T1273 1461T1421 1382T1525 1247T1587 1042T1608 754ZM1165 705V803Q1165 905 1153 981T1107 1107T1010 1183T846 1208H637V289H846Q947 289 1009 315T1106 394T1153 525T1165 705Z"/><glyph unicode="E" horiz-adv-x="1608" d="M1491 0H76V315H213V1184H76V1507H1491V956H1092V1204H637V899H952V614H637V295H1092V580H1491V0Z"/><glyph unicode="F" horiz-adv-x="1550" d="M1491 958H1092V1194H637V887H993V588H637V315H829V0H76V315H213V1184H76V1507H1491V958Z"/><glyph unicode="G" horiz-adv-x="1614" d="M1579 520H1452V43Q1424 35 1364 25T1220 5T1034 -11T821 -18Q696 -18 592 -4T405 43T260 133T156 276T93 480T72 754Q72 988 121 1138T265 1374T501 1493T825 1526Q936 1526 1039 1520T1227 1503T1373 1483T1462 1464V956H1063V1188Q1045 1190 1017 1192T955 1196T886 1199T821 1200Q726 1200 666 1176T572 1105T526 985T514 817V698Q514 605 524 530T568 403T667 322T844 293Q875 293 910 294T977 297T1037 301T1083 307V520H903V807H1579V520Z"/><glyph unicode="H" horiz-adv-x="1821" d="M1745 0H1022V315H1184V625H637V315H799V0H76V315H213V1184H76V1507H799V1184H637V909H1184V1184H1022V1507H1745V1184H1608V315H1745V0Z"/><glyph unicode="I" horiz-adv-x="899" d="M823 0H76V315H238V1184H76V1507H823V1184H662V315H823V0Z"/><glyph unicode="J" horiz-adv-x="1464" d="M1389 1184H1257V543Q1257 366 1217 258T1099 89T904 9T635 -12Q554 -12 466 -6T298 11T154 31T59 49V580H459V311Q471 309 495 308T545 305T596 302T635 301Q686 301 723 313T785 353T822 427T834 543V1184H631V1507H1389V1184Z"/><glyph unicode="K" horiz-adv-x="1753" d="M1694 0H961V295H1087L831 602L631 424V295H737V0H76V315H213V1184H76V1507H737V1204H631V745Q638 757 654 776T699 824T775 896T889 999L1122 1204H961V1507H1677V1184H1536L1130 823L1554 315H1694V0Z"/><glyph unicode="L" horiz-adv-x="1550" d="M1491 0H76V315H213V1184H76V1507H840V1184H637V305H1092V582H1491V0Z"/><glyph unicode="M" horiz-adv-x="2157" d="M2081 0H1382V315H1524V580Q1524 661 1525 741T1528 897T1531 1039T1534 1161Q1519 1112 1500 1045T1459 902T1411 743T1360 580L1237 195H838L713 580Q687 660 662 742T615 901T575 1045T541 1161Q542 1105 544 1038T547 895T550 741T551 580V315H692V0H76V315H213V1184H76V1507H838L989 1044Q1026 930 1051 841T1094 672Q1104 712 1114 753T1135 839T1161 934T1194 1042L1339 1507H2081V1184H1944V315H2081V0Z"/><glyph unicode="N" horiz-adv-x="1815" d="M1739 1184H1608V0H1208L549 1004Q553 972 555 923T559 819T562 707T563 602V315H733V0H76V315H213V1184H76V1507H682L1272 610Q1263 679 1260 774T1257 999V1184H1100V1507H1739V1184Z"/><glyph unicode="O" horiz-adv-x="1704" d="M1632 758Q1632 592 1607 470T1535 261T1420 119T1264 31T1073 -13T850 -25Q731 -25 628 -14T438 29T283 116T168 257T97 466T72 754Q72 919 97 1041T169 1249T284 1391T440 1477T631 1520T854 1532Q973 1532 1076 1521T1266 1478T1421 1393T1536 1252T1607 1045T1632 758ZM1190 694V813Q1190 920 1174 995T1119 1119T1015 1189T850 1212Q751 1212 686 1191T583 1122T530 999T514 817V698Q514 591 530 514T585 386T689 312T854 287Q953 287 1018 310T1121 384T1174 510T1190 694Z"/><glyph unicode="P" horiz-adv-x="1589" d="M1540 993Q1540 873 1521 788T1465 646T1378 554T1262 502T1122 479T961 473H633V305H825V0H76V315H213V1184H76V1507H965Q1050 1507 1125 1503T1265 1481T1380 1430T1466 1340T1521 1198T1540 993ZM1116 989Q1116 1049 1105 1090T1073 1157T1024 1194T961 1206H633V770H965Q999 770 1027 781T1075 819T1105 887T1116 989Z"/><glyph unicode="Q" horiz-adv-x="1704" d="M1632 758Q1632 634 1619 540T1581 374T1520 250T1438 158L1614 -78L1231 -348L975 -2Q944 -7 913 -8T850 -10Q731 -10 628 0T438 41T283 124T168 262T97 468T72 754Q72 919 97 1041T169 1249T284 1391T440 1477T631 1520T854 1532Q973 1532 1076 1521T1266 1478T1421 1393T1536 1252T1607 1045T1632 758ZM1190 694V813Q1190 920 1174 995T1119 1119T1015 1189T850 1212Q751 1212 686 1191T583 1122T530 999T514 817V698Q514 591 530 515T585 390T689 318T854 295Q906 295 948 301L983 307Q1017 315 1043 327T1092 356Q1103 366 1111 375T1128 395Q1163 443 1176 517T1190 694Z"/><glyph unicode="R" horiz-adv-x="1710" d="M1651 0H1038V279L846 545H631V295H815V0H76V315H213V1184H76V1507H965Q1050 1507 1125 1503T1265 1483T1380 1436T1466 1351T1521 1217T1540 1024Q1540 935 1526 867T1481 748T1404 662T1290 604L1501 315H1651V0ZM1116 1014Q1116 1071 1105 1108T1073 1166T1024 1197T961 1206H631V811H965Q999 811 1027 821T1075 855T1105 918T1116 1014Z"/><glyph unicode="S" horiz-adv-x="1556" d="M1493 434Q1493 345 1479 277T1430 159T1340 74T1201 19T1006 -11T748 -20Q620 -20 509 -14T311 0T165 18T80 33V500H479V270Q498 265 530 262T601 257T678 253T752 252Q852 252 912 261T1003 289T1043 341T1053 418Q1053 465 1041 491T994 533T893 556T723 575Q590 589 491 604T319 643T200 702T125 791T86 921T74 1102Q74 1229 115 1311T240 1442T454 1509T760 1528Q816 1528 881 1525T1013 1518T1144 1507T1264 1493T1360 1479T1421 1466V1038H1022V1235Q1010 1237 977 1239T904 1243T824 1246T756 1247Q681 1247 633 1241T557 1220T519 1177T508 1106Q508 1063 517 1036T559 991T650 963T811 942Q948 928 1052 914T1232 876T1358 820T1438 734T1480 609T1493 434Z"/><glyph unicode="T" horiz-adv-x="1704" d="M1645 956H1276V1227H1063V313H1235V0H469V315H641V1229H428V958H59V1507H1645V956Z"/><glyph unicode="U" horiz-adv-x="1819" d="M1743 1184H1612V532Q1612 366 1572 259T1448 90T1232 4T918 -20Q735 -20 601 2T380 86T250 253T207 528V1184H76V1507H813V1184H631V530Q631 458 649 416T705 351T796 322T922 315Q993 315 1046 320T1136 346T1190 409T1208 526V1184H1034V1507H1743V1184Z"/><glyph unicode="V" horiz-adv-x="1849" d="M1790 1184H1651L1165 -10H694L203 1184H59V1507H862V1204H641L801 801Q826 736 848 679T889 567T927 460T963 354Q981 406 999 458T1036 566T1078 679T1126 801L1290 1204H1085V1507H1790V1184Z"/><glyph unicode="W" horiz-adv-x="2308" d="M2249 1184H2120L1827 -10H1339L1227 477Q1217 522 1207 572T1187 669T1169 756T1157 821Q1153 797 1146 758T1130 671T1110 574T1087 479L965 -10H500L188 1184H59V1507H819V1204H633L700 899Q726 778 752 656T795 414Q813 532 841 655T901 899L1024 1364H1380L1505 899Q1521 839 1537 776T1567 649T1592 526T1612 414Q1619 467 1629 527T1652 649T1677 775T1704 899L1774 1204H1585V1507H2249V1184Z"/><glyph unicode="X" horiz-adv-x="1782" d="M1722 0H920V285H1096L1040 352Q1034 359 1018 379T979 425T931 481T884 537T847 582T827 608Q823 602 808 583T770 537T721 481T672 425T632 379T608 352L553 285H737V0H59V315H176L565 760L193 1184H80V1507H844V1214H676L745 1137Q751 1130 766 1112T802 1071T844 1021T886 970T921 928T940 901Q944 908 958 926T992 969T1034 1019T1077 1070T1113 1112T1135 1137L1204 1212H1026V1507H1702V1184H1583L1204 752L1579 315H1722V0Z"/><glyph unicode="Y" horiz-adv-x="1794" d="M1735 1184H1608L1104 528V315H1292V0H492V315H680V518L186 1184H59V1507H825V1204H647L721 1104Q754 1059 781 1021T834 946T883 872T936 793Q960 830 984 867T1035 941T1092 1019T1157 1104L1237 1204H1049V1507H1735V1184Z"/><glyph unicode="Z" horiz-adv-x="1530" d="M1470 0H76V336L504 760Q565 820 624 877T737 985T837 1079T919 1155T978 1208T1008 1233H494V958H94V1507H1452V1161L1020 733Q915 629 834 550T694 414T594 321T532 266H1071V580H1470V0Z"/><glyph unicode="[" horiz-adv-x="850" d="M774 -358H154V1579H774V1264H504V-51H774V-358Z"/><glyph unicode="\" horiz-adv-x="909" d="M926 -47L608 -164L-10 1536L307 1653L926 -47Z"/><glyph unicode="]" horiz-adv-x="850" d="M696 -358H76V-51H367V1264H76V1579H696V-358Z"/><glyph unicode="^" horiz-adv-x="1151" d="M997 1294L899 1114L575 1253L254 1114L152 1290L575 1585L997 1294Z"/><glyph unicode="_" horiz-adv-x="1196" d="M1274 -391H-78V-100H1274V-391Z"/><glyph unicode="`" horiz-adv-x="1022" d="M795 1247L623 1075L139 1434L401 1696L795 1247Z"/><glyph unicode="a" horiz-adv-x="1300" d="M1253 0H791L760 98Q733 84 692 65T597 29T475 -1T330 -14Q269 -14 219 6T132 68T75 173T55 322Q55 353 58 388T70 455T94 515T135 559Q168 580 219 592T344 612T519 622T750 625V727Q750 744 747 755T732 774T700 785T641 788Q618 788 583 788T510 784V690H129V991Q171 998 232 1004T362 1015T504 1023T641 1026Q791 1026 889 1007T1046 947T1127 846T1151 702V295H1253V0ZM750 258V444Q698 444 661 443T594 441T542 436T498 428Q476 423 467 397T457 336Q457 282 476 260T549 238Q572 238 600 239T655 244T708 250T750 258Z"/><glyph unicode="b" horiz-adv-x="1393" d="M1319 502Q1319 362 1301 264T1242 103T1136 13T979 -16Q914 -16 850 -7T729 15T628 43T559 70L528 0H55V295H168V1251H51V1559H569V903Q594 915 640 934T744 972T866 1003T989 1016Q1081 1016 1144 988T1246 899T1302 739T1319 502ZM913 498Q913 565 907 607T887 674T851 706T797 715Q755 715 723 713T664 708T615 701T569 692V281Q587 278 608 276T657 271T718 268T797 266Q825 266 846 278T883 317T905 388T913 498Z"/><glyph unicode="c" horiz-adv-x="1274" d="M1174 31Q1137 23 1090 15T982 1T847 -10T680 -14Q570 -14 483 -6T328 23T212 81T132 175T87 314T72 504Q72 613 87 694T133 833T214 928T331 987T487 1017T684 1026Q776 1026 849 1022T980 1010T1086 994T1174 975V580H793V754Q774 759 749 761T680 764Q609 764 569 753T507 712T481 633T475 508Q475 433 481 382T509 300T572 254T684 240Q710 240 737 242T793 250V432H1174V31Z"/><glyph unicode="d" horiz-adv-x="1393" d="M1346 0H864L834 96Q809 84 764 64T660 24T535 -9T403 -23Q311 -23 248 6T147 97T91 259T74 498Q74 637 92 735T151 896T257 987T414 1016Q479 1016 542 1007T660 986T757 959T823 936V1251H690V1559H1225V295H1346V0ZM823 307V719Q805 721 784 723T736 728T675 731T596 733Q567 733 546 722T509 683T487 612T479 502Q479 434 485 392T506 326T542 294T596 285Q638 285 670 286T729 291T777 298T823 307Z"/><glyph unicode="e" horiz-adv-x="1280" d="M1192 436H473Q474 370 482 328T514 262T577 228T682 219Q724 219 751 222T793 229V332H1174V31Q1157 26 1116 19T1012 4T865 -9T678 -14Q568 -14 481 -6T327 24T211 83T132 178T87 316T72 504Q72 670 108 772T216 930T396 1005T651 1024Q760 1024 842 1017T985 991T1085 939T1148 855T1182 733T1192 565V436ZM807 621Q805 675 799 707T776 757T728 780T645 786Q597 786 568 781T520 758T492 708T473 621H807Z"/><glyph unicode="f" horiz-adv-x="895" d="M848 1260Q767 1240 722 1224T654 1189T626 1142T621 1071V993H834V690H621V295H834V0H76V295H219V690H76V993H219V1133Q219 1198 226 1248T254 1339T313 1411T411 1468T559 1518T766 1565L848 1260Z"/><glyph unicode="g" horiz-adv-x="1284" d="M1243 -59Q1243 -117 1239 -163T1220 -245T1173 -308T1088 -354T953 -386T755 -406T484 -416T127 -420H86V-45H487V-162Q577 -163 639 -161T743 -154T807 -141T840 -122T853 -96T856 -63Q856 -45 852 -32T829 -8T769 9T658 20T479 28T215 35L258 344Q187 362 143 385T74 442T40 526T31 649Q31 715 38 768T66 862T126 932T228 980T384 1007T604 1016Q667 1016 726 1012T831 1001L897 1157L1241 1028L1141 782Q1149 759 1153 722T1157 651Q1157 581 1151 529T1124 439T1065 377T964 339T810 319T592 313H590L582 231Q724 226 828 219T1005 200T1125 168T1197 118T1233 44T1243 -59ZM770 649Q770 687 767 716T758 768Q726 771 688 772T594 774Q541 774 507 771T453 756T426 718T418 649Q418 600 425 573T453 532T507 517T594 514Q647 514 681 516T735 532T762 572T770 649Z"/><glyph unicode="h" horiz-adv-x="1430" d="M1382 0H868V639Q868 680 844 694T758 709Q732 709 705 707T652 701T605 693T569 686V295H702V0H55V295H168V1251H55V1559H569V903Q597 918 645 938T751 975T870 1004T987 1016Q1127 1016 1198 958T1270 770V295H1382V0Z"/><glyph unicode="i" horiz-adv-x="791" d="M621 1110H180V1487H621V1110ZM743 0H76V295H219V690H76V993H621V295H743V0Z"/><glyph unicode="j" horiz-adv-x="733" d="M621 25Q621 -40 614 -91T586 -182T527 -253T429 -311T281 -361T74 -408L-8 -102Q73 -82 118 -67T186 -32T214 15T219 86V690H76V993H621V25ZM621 1110H180V1487H621V1110Z"/><glyph unicode="k" horiz-adv-x="1403" d="M1356 0H856L854 211L682 406L569 330V274H690V0H55V295H168V1251H55V1559H569V596Q595 621 650 664T778 758L842 801V993H1292V694H1108L981 608L1245 295H1356V0Z"/><glyph unicode="l" horiz-adv-x="799" d="M752 0H55V295H199V1251H55V1559H600V295H752V0Z"/><glyph unicode="m" horiz-adv-x="2109" d="M2062 0H1548V639Q1548 660 1544 673T1529 695T1499 706T1448 709Q1419 709 1392 706T1340 700T1298 692T1270 686V295H1382V0H868V639Q868 660 864 673T849 695T819 706T768 709Q739 709 712 706T660 700T618 692T590 686V295H702V0H76V295H188V690H76V993H549L580 897Q617 915 663 935T763 974T879 1004T1012 1016Q1109 1016 1167 982T1245 891Q1291 915 1344 937T1453 977T1568 1005T1686 1016Q1755 1016 1805 1002T1887 955T1934 873T1950 750V295H2062V0Z"/><glyph unicode="n" horiz-adv-x="1450" d="M1403 0H889V639Q889 680 864 694T778 709Q749 709 720 706T666 700T620 692T590 686V295H723V0H76V295H188V690H76V993H549L580 897Q605 912 653 932T761 971T885 1003T1008 1016Q1147 1016 1218 958T1290 770V295H1403V0Z"/><glyph unicode="o" horiz-adv-x="1339" d="M1268 508Q1268 350 1237 249T1135 90T949 9T668 -14Q557 -14 470 -5T316 27T203 87T128 183T85 320T72 504Q72 661 103 762T205 922T390 1003T672 1026Q838 1026 952 1004T1136 925T1237 766T1268 508ZM864 504Q864 576 858 625T832 706T773 750T668 764Q602 764 564 751T506 708T481 629T475 508Q475 436 481 385T507 302T567 255T672 240Q738 240 776 254T833 299T858 381T864 504Z"/><glyph unicode="p" horiz-adv-x="1393" d="M1319 502Q1319 362 1301 264T1242 103T1136 13T979 -16Q914 -16 851 -7T733 14T636 40T569 63V-119H702V-410H55V-119H168V690H55V993H528L559 897Q584 909 629 929T733 969T858 1002T989 1016Q1081 1016 1144 988T1246 899T1302 739T1319 502ZM913 498Q913 565 907 607T887 674T851 706T797 715Q755 715 723 713T664 708T615 701T569 692V281Q587 278 608 276T657 271T718 268T797 266Q825 266 846 278T883 317T905 388T913 498Z"/><glyph unicode="q" horiz-adv-x="1393" d="M1333 -410H711V-119H823V92Q799 80 755 61T654 23T534 -9T403 -23Q311 -23 248 6T147 97T91 259T74 498Q74 637 92 735T151 896T257 987T414 1016Q479 1016 544 1006T665 983T766 955T834 932L864 993H1333V690H1225V-119H1333V-410ZM823 307V719Q805 721 784 723T736 728T675 731T596 733Q567 733 546 722T509 683T487 612T479 502Q479 434 485 392T506 326T542 294T596 285Q638 285 670 286T729 291T777 298T823 307Z"/><glyph unicode="r" horiz-adv-x="1161" d="M1114 580H723V680Q712 679 693 678T653 674T615 669T590 664V295H723V0H76V295H188V690H76V993H549L580 877Q634 904 696 929T826 976T966 1011T1114 1030V580Z"/><glyph unicode="s" horiz-adv-x="1206" d="M1153 309Q1153 242 1141 193T1102 108T1032 49T927 13T782 -6T594 -12Q496 -12 412 -8T262 3T148 16T76 29V326H446V207Q469 204 508 202T594 199Q652 199 686 201T738 212T761 237T766 279Q766 301 761 314T732 337T656 352T512 367Q413 375 341 386T219 416T138 459T89 520T65 603T59 713Q59 807 92 868T190 965T353 1014T580 1028Q662 1028 741 1024T890 1013T1016 996T1108 973V690H737V799Q726 801 708 803T667 806T624 808T586 809Q543 809 515 807T470 797T447 775T440 739Q440 714 448 699T483 675T560 661T696 649Q798 641 871 632T996 608T1077 570T1125 512T1147 427T1153 309Z"/><glyph unicode="t" horiz-adv-x="883" d="M813 10Q795 7 759 4T677 -3T584 -8T496 -10Q397 -10 331 6T225 60T167 160T150 315V690H37V993H150V1288L551 1329V993H786V690H551V414Q551 372 558 346T579 304T614 282T664 276Q682 276 719 279T797 287L813 10Z"/><glyph unicode="u" horiz-adv-x="1430" d="M1382 0H901L870 96Q845 81 797 61T689 22T565 -10T442 -23Q302 -23 231 35T160 223V690H47V993H561V354Q561 333 567 320T586 299T620 288T672 285Q700 285 729 287T784 293T830 301T860 307V690H727V993H1262V295H1382V0Z"/><glyph unicode="v" horiz-adv-x="1442" d="M1395 690H1305L932 -8H530L154 690H47V993H696V711H571L649 563Q661 539 678 505T712 433T745 358T772 293Q783 320 799 357T832 433T865 506T893 563L971 711H858V993H1395V690Z"/><glyph unicode="w" horiz-adv-x="1948" d="M1901 690H1804L1552 -8H1151L967 455L799 -8H397L145 690H47V993H680V711H549L592 559Q614 484 629 421T657 301Q673 360 689 422T731 559L844 891H1198L1311 557Q1323 520 1333 488T1351 426T1368 366T1386 301Q1393 335 1400 366T1414 427T1430 488T1450 557L1495 711H1364V993H1901V690Z"/><glyph unicode="x" horiz-adv-x="1370" d="M1323 0H764V215L653 309L582 250V0H47V295H215L432 473L178 690H78V993H647V764L735 676L809 745V993H1292V690H1149L944 518L1212 295H1323V0Z"/><glyph unicode="y" horiz-adv-x="1493" d="M1446 690H1356L872 -129H1014V-410H297V-129H532L594 -25L154 690H47V993H727V711H582L676 553Q719 481 751 413T805 297Q827 345 858 412T932 553L1022 711H889V993H1446V690Z"/><glyph unicode="z" horiz-adv-x="1274" d="M1227 0H76V276L354 479Q514 594 623 669T776 768H475V637H94V993H1194V717L877 475Q825 436 770 397T666 322T577 260T518 217H846V393H1227V0Z"/><glyph unicode="{" horiz-adv-x="1087" d="M1012 -358Q863 -358 750 -345T553 -297T412 -203T319 -54T266 161T244 453H59V754H244Q248 920 266 1046T320 1263T413 1416T554 1513T751 1564T1012 1579V1264Q913 1264 845 1254T730 1218T658 1144T619 1023T603 845T600 600Q600 460 603 357T619 182T658 65T730 -6T844 -41T1012 -51V-358Z"/><glyph unicode="|" horiz-adv-x="909" d="M621 -279H289V1559H621V-279Z"/><glyph unicode="}" horiz-adv-x="1087" d="M1028 453H844Q839 286 822 161T769 -54T676 -203T535 -296T338 -344T76 -358V-51Q174 -51 243 -42T357 -7T429 64T468 182T484 357T487 600Q487 741 484 845T468 1023T429 1144T358 1217T243 1254T76 1264V1579Q224 1579 337 1564T534 1513T675 1416T768 1264T821 1046T844 754H1028V453Z"/><glyph unicode="~" horiz-adv-x="1024" d="M1006 1282Q987 1266 962 1246T907 1203T846 1159T783 1121T722 1094T668 1083Q631 1083 588 1098T503 1132T426 1166T369 1182Q354 1182 334 1172T291 1146T244 1109T195 1069L18 1292Q46 1317 89 1351T179 1416T272 1469T356 1491Q393 1491 436 1476T521 1442T598 1409T655 1393Q670 1393 690 1403T733 1429T780 1465T829 1505L1006 1282Z"/><glyph unicode=" " horiz-adv-x="2048"/><glyph unicode="¡" horiz-adv-x="797" d="M641 1118H156V1507H641V1118ZM662 0H135L227 1034H569L662 0Z"/><glyph unicode="¢" horiz-adv-x="1368" d="M1174 297Q1114 285 1025 272T807 254V0H485V260Q374 271 296 301T168 389T95 540T72 770Q72 906 95 999T169 1151T297 1241T485 1284V1528H807V1290Q871 1288 923 1283T1020 1272T1103 1258T1174 1241V846H793V1020Q774 1025 749 1027T680 1030Q609 1030 569 1019T507 978T481 899T475 774Q475 699 481 648T509 566T572 520T684 506Q710 506 737 508T793 516V719H1174V297Z"/><glyph unicode="£" horiz-adv-x="1503" d="M1386 0H76V285H342L252 608H76V885H184Q179 907 174 934T165 990T157 1045T154 1094Q154 1211 180 1294T276 1431T463 1509T766 1534Q841 1534 926 1530T1094 1517T1253 1498T1386 1473V1044H987V1200Q971 1202 946 1204T891 1208T829 1211T766 1212Q706 1212 669 1205T611 1181T583 1135T575 1061Q575 1026 582 978T598 885H893V608H664Q682 533 704 451T750 285H987V481H1386V0Z"/><glyph unicode="¤" horiz-adv-x="1152" d="M1056 392L940 284L740 500Q668 452 572 452Q480 452 408 500L208 284L92 392L300 608Q272 648 262 686T252 780Q252 828 262 870T300 952L92 1168L208 1276L408 1060Q480 1108 572 1108Q668 1108 740 1060L944 1276L1060 1156L852 952Q880 912 890 872T900 780Q900 684 848 608L1056 392ZM748 780Q748 860 698 910T572 960Q496 960 448 910T400 780Q400 700 450 652T572 604Q652 604 700 652T748 780Z"/><glyph unicode="¥" horiz-adv-x="1794" d="M1735 1184H1608Q1584 1153 1557 1118Q1534 1088 1503 1049T1438 967H1655V731H1255Q1238 710 1225 693T1202 664Q1191 650 1182 639H1655V403H1100V315H1292V0H492V315H684V403H139V639H596L526 731H139V967H350L186 1184H59V1507H825V1204H625L705 1096Q741 1048 770 1007T826 925T879 845T936 760Q963 800 989 839T1044 920T1105 1004T1176 1096L1262 1204H1049V1507H1735V1184Z"/><glyph unicode="¦" horiz-adv-x="640" d="M216 788V1636H424V788H216ZM216 -412V440H424V-412H216Z"/><glyph unicode="§" horiz-adv-x="1376" d="M1253 850Q1253 816 1242 776T1215 696T1179 620T1141 559Q1194 521 1210 458T1227 303Q1227 222 1200 164T1110 68T946 12T696 -6Q612 -6 534 -2T389 9T267 26T176 49V324H547V215Q568 210 601 208T670 205Q729 205 764 208T818 219T842 241T848 279Q848 307 842 323T813 347T742 360T614 367Q455 373 359 395T210 455T140 547T123 672Q123 715 136 759T167 842T204 912T236 961Q209 981 192 1006T166 1064T154 1134T150 1219Q150 1300 177 1358T267 1454T431 1510T680 1528Q764 1528 842 1524T987 1513T1109 1495T1200 1473V1198H829V1298Q808 1303 775 1306T707 1309Q648 1309 613 1307T558 1297T534 1276T528 1239Q528 1210 534 1195T563 1172T634 1161T762 1155Q925 1149 1022 1127T1171 1067T1237 975T1253 850ZM897 782Q897 799 891 811T862 831T795 845T674 854Q632 856 594 858T522 864Q499 818 489 791T479 739Q479 722 486 710T516 690T583 676T702 668Q744 666 782 664T854 657Q871 688 884 721T897 782Z"/><glyph unicode="¨" horiz-adv-x="1024" d="M938 1098H565V1427H938V1098ZM459 1098H86V1427H459V1098Z"/><glyph unicode="©" horiz-adv-x="1884" d="M1812 752Q1812 598 1793 481T1731 278T1621 133T1456 40T1232 -10T942 -25Q780 -25 653 -10T428 40T264 133T154 277T92 481T72 752Q72 905 91 1022T153 1227T263 1372T428 1466T652 1517T942 1532Q1104 1532 1231 1517T1456 1467T1620 1373T1730 1227T1792 1023T1812 752ZM1602 754Q1602 894 1587 993T1538 1158T1453 1264T1327 1324T1158 1350T942 1356Q822 1356 727 1350T558 1324T432 1265T347 1159T299 993T283 754Q283 614 298 515T347 350T432 244T557 184T726 158T942 152Q1062 152 1158 158T1327 184T1452 243T1538 349T1586 515T1602 754ZM1362 311Q1293 296 1192 282T950 268Q853 268 778 276T648 304T555 360T494 449T461 578T451 756Q451 903 474 994T555 1138T708 1208T950 1227Q1088 1227 1194 1219T1362 1196V868H1047V999Q1019 1004 1000 1006T950 1008Q896 1008 863 1000T813 968T790 900T784 784V723Q784 652 789 608T812 538T863 504T950 494Q964 494 975 494T997 496T1020 498T1047 502V637H1362V311Z"/><glyph unicode="ª" horiz-adv-x="1100" d="M1040 700H659L635 778Q609 767 572 752T490 722T395 698T291 688Q242 688 202 706T132 759T86 846T70 967Q70 992 72 1019T82 1073T101 1121T135 1157Q161 1174 202 1184T302 1200T442 1208T627 1210V1292Q627 1305 625 1314T613 1330T587 1338T539 1341Q520 1341 492 1341T434 1337V1251H129V1513Q162 1519 211 1523T315 1532T429 1538T539 1540Q659 1540 739 1523T868 1472T937 1388T958 1272V948H1040V700ZM958 383H129V600H958V383ZM627 920V1061Q585 1061 555 1060T503 1058T464 1054T434 1049Q411 1044 407 1027T403 981Q403 938 416 921T471 903Q489 903 510 904T553 908T594 913T627 920Z"/><glyph unicode="«" horiz-adv-x="1339" d="M1178 72L938 -47L618 469L938 989L1178 870L961 469L1178 72ZM686 72L446 -47L127 469L446 989L686 870L469 469L686 72Z"/><glyph unicode="¬" horiz-adv-x="1536" d="M1116 352V728H212V920H1296V352H1116Z"/><glyph unicode="­" horiz-adv-x="799" d="M713 455H86V745H713V455Z"/><glyph unicode="®" horiz-adv-x="1884" d="M1812 752Q1812 598 1793 481T1731 278T1621 133T1456 40T1232 -10T942 -25Q780 -25 653 -10T428 40T264 133T154 277T92 481T72 752Q72 905 91 1022T153 1227T263 1372T428 1466T652 1517T942 1532Q1104 1532 1231 1517T1456 1467T1620 1373T1730 1227T1792 1023T1812 752ZM1602 754Q1602 894 1587 993T1538 1158T1453 1264T1327 1324T1158 1350T942 1356Q822 1356 727 1350T558 1324T432 1265T347 1159T299 993T283 754Q283 614 298 515T347 350T432 244T557 184T726 158T942 152Q1062 152 1158 158T1327 184T1452 243T1538 349T1586 515T1602 754ZM1407 313H1028V496L942 604H852V524H918V313H494V524H555V977H494V1188H1012Q1105 1188 1174 1176T1290 1128T1359 1032T1382 872Q1382 813 1372 773T1341 705T1293 661T1231 631L1327 524H1407V313ZM1061 872Q1061 911 1059 932T1049 964T1027 977T989 979H852V764H975Q1003 764 1020 766T1046 779T1058 812T1061 872Z"/><glyph unicode="¯" horiz-adv-x="1024" d="M842 1116H182V1442H842V1116Z"/><glyph unicode="°" horiz-adv-x="1090" d="M1020 1108Q1020 999 994 918T911 784T763 705T543 678Q414 678 324 703T178 781T96 914T70 1104Q70 1213 96 1294T179 1428T327 1507T547 1534Q676 1534 766 1509T912 1431T994 1298T1020 1108ZM702 1104Q702 1169 695 1210T670 1274T622 1306T543 1315Q495 1315 465 1307T418 1277T394 1214T387 1108Q387 1043 394 1002T419 937T468 906T547 897Q595 897 625 905T672 935T695 998T702 1104Z"/><glyph unicode="±" horiz-adv-x="1536" d="M672 352V764H200V936H672V1352H864V936H1340V764H864V352H672ZM204 24V216H1336V24H204Z"/><glyph unicode="²" horiz-adv-x="896" d="M56 628V768L400 1108Q472 1176 512 1230T552 1352Q552 1404 506 1436T400 1468Q336 1468 276 1430T172 1348L64 1456Q124 1520 220 1570T428 1620Q568 1620 658 1540T748 1344Q748 1236 658 1134T492 976L268 788H776V628H56Z"/><glyph unicode="³" horiz-adv-x="896" d="M48 732L152 864Q216 816 284 796T424 776Q524 776 572 818T620 928Q620 1004 552 1040T384 1076H312V1204H372Q472 1204 530 1242T588 1336Q588 1400 536 1428T412 1456Q332 1456 272 1430T176 1384L88 1516Q176 1572 268 1596T448 1620Q596 1620 684 1556T772 1376Q772 1276 710 1222T556 1148Q664 1136 738 1080T812 904Q812 764 700 688T432 612Q300 612 206 646T48 732Z"/><glyph unicode="´" horiz-adv-x="1022" d="M883 1434L399 1075L227 1247L621 1696L883 1434Z"/><glyph unicode="µ" horiz-adv-x="1408" d="M252 -424Q196 -424 168 -392T140 -280Q140 -200 144 -106T156 100Q164 200 168 256T172 328Q176 348 176 356V1176H368V320Q368 228 450 176T628 124Q760 124 858 190T1008 380V1176H1200V308L1220 0H1056L1020 176Q952 68 836 14T572 -40Q520 -40 444 -14T324 60Q324 -28 352 -112T380 -264Q380 -424 252 -424Z"/><glyph unicode="¶" horiz-adv-x="1534" d="M1458 0H938V524H807V0H246V315H444V535Q430 535 417 536T393 539Q357 545 320 556T247 589T180 643T126 724T90 840T76 997Q76 1106 95 1186T149 1322T236 1415T351 1471T490 1499T651 1507H1458V1184H1321V315H1458V0ZM938 801V1190H614Q579 1190 551 1181T502 1149T471 1088T459 993Q459 933 469 896T500 837T547 809T610 801H938Z"/><glyph unicode="·" horiz-adv-x="797" d="M641 524H156V913H641V524Z"/><glyph unicode="¸" horiz-adv-x="1024" d="M743 -295Q725 -313 688 -335T597 -381T471 -425T315 -459L260 -205Q291 -199 324 -191T387 -175T440 -157T473 -141L440 31L672 80L743 -295Z"/><glyph unicode="¹" horiz-adv-x="768" d="M324 628V1424L144 1384V1528L392 1636H508V628H324Z"/><glyph unicode="º" horiz-adv-x="1126" d="M1049 1108Q1049 982 1023 900T939 768T788 700T561 680Q428 680 336 699T187 766T104 896T78 1104Q78 1230 104 1312T188 1444T338 1512T565 1532Q698 1532 790 1513T940 1446T1023 1316T1049 1108ZM979 383H147V600H979V383ZM713 1104Q713 1161 709 1201T690 1266T645 1302T561 1313Q508 1313 479 1303T435 1268T417 1205T414 1108Q414 1050 418 1010T437 944T482 907T565 895Q618 895 648 906T692 941T710 1006T713 1104Z"/><glyph unicode="»" horiz-adv-x="1339" d="M1212 469L893 -47L653 72L870 469L653 870L893 989L1212 469ZM721 469L401 -47L162 72L379 469L162 870L401 989L721 469Z"/><glyph unicode="¼" horiz-adv-x="1920" d="M368 0L1340 1524H1520L548 0H368ZM292 628V1424L112 1384V1528L360 1636H476V628H292ZM1540 0V220H1060V360L1512 980H1724V376H1844V220H1724V0H1540ZM1260 368H1540V768L1260 368Z"/><glyph unicode="½" horiz-adv-x="1920" d="M276 0L1248 1524H1428L456 0H276ZM268 628V1424L88 1384V1528L336 1636H452V628H268ZM1136 0V140L1480 480Q1552 548 1592 602T1632 724Q1632 776 1586 808T1480 840Q1416 840 1356 802T1252 720L1144 828Q1204 892 1300 942T1508 992Q1648 992 1738 912T1828 716Q1828 608 1738 506T1572 348L1348 160H1856V0H1136Z"/><glyph unicode="¾" horiz-adv-x="1920" d="M1564 0V220H1084V360L1536 980H1748V376H1868V220H1748V0H1564ZM48 732L152 864Q216 816 284 796T424 776Q524 776 572 818T620 928Q620 1004 552 1040T384 1076H312V1204H372Q472 1204 530 1242T588 1336Q588 1400 536 1428T412 1456Q332 1456 272 1430T176 1384L88 1516Q176 1572 268 1596T448 1620Q596 1620 684 1556T772 1376Q772 1276 710 1222T556 1148Q664 1136 738 1080T812 904Q812 764 700 688T432 612Q300 612 206 646T48 732ZM440 0L1412 1524H1592L620 0H440ZM1284 368H1564V768L1284 368Z"/><glyph unicode="¿" horiz-adv-x="1491" d="M1034 1118H549V1507H1034V1118ZM1354 39Q1316 29 1256 18T1118 -4T947 -20T748 -27Q543 -27 412 -7T206 61T103 187T74 383Q74 441 80 486T106 569T162 642T256 714T397 793T596 889V1034H979V764Q859 704 777 665T641 597T558 548T516 505T500 456T498 387Q498 358 509 338T548 305T624 285T748 279Q819 279 870 286T954 301V580H1354V39Z"/><glyph unicode="À" horiz-adv-x="1849" d="M1790 0H987V295H1212L1149 455H621L555 295H764V0H59V315H197L684 1518H1155L1647 315H1790V0ZM1063 688L1028 776Q1013 815 993 868T952 977T915 1080T887 1155Q877 1127 859 1078T819 973T778 864T743 776L709 688H1063ZM1209 1792L1037 1620L553 1979L815 2241L1209 1792Z"/><glyph unicode="Á" horiz-adv-x="1849" d="M1790 0H987V295H1212L1149 455H621L555 295H764V0H59V315H197L684 1518H1155L1647 315H1790V0ZM1063 688L1028 776Q1013 815 993 868T952 977T915 1080T887 1155Q877 1127 859 1078T819 973T778 864T743 776L709 688H1063ZM1297 1979L813 1620L641 1792L1035 2241L1297 1979Z"/><glyph unicode="Â" horiz-adv-x="1849" d="M1790 0H987V295H1212L1149 455H621L555 295H764V0H59V315H197L684 1518H1155L1647 315H1790V0ZM1063 688L1028 776Q1013 815 993 868T952 977T915 1080T887 1155Q877 1127 859 1078T819 973T778 864T743 776L709 688H1063ZM1362 1808L1248 1597L924 1757L602 1597L484 1804L924 2119L1362 1808Z"/><glyph unicode="Ã" horiz-adv-x="1849" d="M1790 0H987V295H1212L1149 455H621L555 295H764V0H59V315H197L684 1518H1155L1647 315H1790V0ZM1063 688L1028 776Q1013 815 993 868T952 977T915 1080T887 1155Q877 1127 859 1078T819 973T778 864T743 776L709 688H1063ZM1418 1827Q1399 1811 1374 1791T1319 1748T1258 1704T1195 1666T1134 1639T1080 1628Q1043 1628 1000 1643T915 1677T838 1711T781 1727Q766 1727 746 1717T703 1691T656 1654T607 1614L430 1837Q458 1862 501 1896T591 1961T684 2014T768 2036Q805 2036 848 2021T933 1987T1010 1954T1067 1938Q1082 1938 1102 1948T1145 1974T1192 2010T1241 2050L1418 1827Z"/><glyph unicode="Ä" horiz-adv-x="1849" d="M1739 1178H1366V1507H1739V1178ZM479 1178H106V1507H479V1178ZM1790 0H987V295H1212L1149 455H621L555 295H764V0H59V315H197L684 1518H1155L1647 315H1790V0ZM1063 688L1028 776Q1013 815 993 868T952 977T915 1080T887 1155Q877 1127 859 1078T819 973T778 864T743 776L709 688H1063Z"/><glyph unicode="Å" horiz-adv-x="1849" d="M1790 0H987V295H1212L1149 455H621L555 295H764V0H59V315H197L649 1434Q612 1461 593 1507T573 1622Q573 1697 595 1745T662 1821T772 1861T924 1872Q1010 1872 1075 1861T1185 1822T1251 1745T1274 1622Q1274 1551 1253 1504T1190 1430L1647 315H1790V0ZM1047 1622Q1047 1660 1041 1684T1020 1721T982 1738T924 1743Q890 1743 867 1739T830 1721T809 1684T803 1622Q803 1584 809 1561T829 1526T867 1511T924 1507Q958 1507 981 1510T1019 1526T1040 1561T1047 1622ZM1063 688L1028 776Q1013 815 993 868T952 977T915 1080T887 1155Q877 1127 859 1078T819 973T778 864T743 776L709 688H1063Z"/><glyph unicode="Æ" horiz-adv-x="2525" d="M2408 0H1028V295H1151V455H682L588 295H805V0H72V315H201L743 1188H571V1507H2408V956H2009V1204H1554V899H1870V614H1554V295H2009V580H2408V0ZM1151 709V1243L838 709H1151Z"/><glyph unicode="Ç" horiz-adv-x="1604" d="M1462 43Q1440 37 1394 29T1285 12T1143 -3T979 -14L1032 -295Q1014 -313 977 -335T886 -381T760 -425T604 -459L549 -205Q580 -199 613 -191T676 -175T729 -157T762 -141L737 -16Q571 -10 447 28T239 153T114 387T72 754Q72 988 121 1138T265 1374T501 1493T825 1526Q936 1526 1039 1520T1227 1503T1373 1483T1462 1464V956H1063V1188Q1045 1190 1017 1192T955 1196T886 1199T821 1200Q726 1200 666 1176T572 1105T526 985T514 817V698Q514 605 526 531T572 406T666 327T825 299Q856 299 891 299T958 301T1017 305T1063 311V580H1462V43Z"/><glyph unicode="È" horiz-adv-x="1608" d="M1491 0H76V315H213V1184H76V1507H1491V956H1092V1204H637V899H952V614H637V295H1092V580H1491V0ZM1088 1792L916 1620L432 1979L694 2241L1088 1792Z"/><glyph unicode="É" horiz-adv-x="1608" d="M1491 0H76V315H213V1184H76V1507H1491V956H1092V1204H637V899H952V614H637V295H1092V580H1491V0ZM1176 1979L692 1620L520 1792L914 2241L1176 1979Z"/><glyph unicode="Ê" horiz-adv-x="1608" d="M1491 0H76V315H213V1184H76V1507H1491V956H1092V1204H637V899H952V614H637V295H1092V580H1491V0ZM1241 1829L1127 1618L803 1778L481 1618L363 1825L803 2140L1241 1829Z"/><glyph unicode="Ë" horiz-adv-x="1608" d="M1491 0H76V315H213V1184H76V1507H1491V956H1092V1204H637V899H952V614H637V295H1092V580H1491V0ZM1229 1643H856V1972H1229V1643ZM750 1643H377V1972H750V1643Z"/><glyph unicode="Ì" horiz-adv-x="899" d="M823 0H76V315H238V1184H76V1507H823V1184H662V315H823V0ZM735 1792L563 1620L79 1979L341 2241L735 1792Z"/><glyph unicode="Í" horiz-adv-x="899" d="M823 0H76V315H238V1184H76V1507H823V1184H662V315H823V0ZM823 1979L339 1620L167 1792L561 2241L823 1979Z"/><glyph unicode="Î" horiz-adv-x="899" d="M823 0H76V315H238V1184H76V1507H823V1184H662V315H823V0ZM887 1829L772 1618L449 1778L127 1618L8 1825L449 2140L887 1829Z"/><glyph unicode="Ï" horiz-adv-x="899" d="M823 0H76V315H238V1184H76V1507H823V1184H662V315H823V0ZM876 1643H503V1972H876V1643ZM397 1643H24V1972H397V1643Z"/><glyph unicode="Ð" horiz-adv-x="1679" d="M1608 754Q1608 586 1588 465T1526 260T1421 125T1274 45T1083 8T848 -2H76V313H213V627H80V883H213V1184H76V1507H848Q976 1507 1082 1498T1273 1461T1421 1382T1525 1247T1587 1042T1608 754ZM1165 705V803Q1165 905 1153 981T1107 1107T1010 1183T846 1208H637V883H879V627H637V289H846Q947 289 1009 315T1106 394T1153 525T1165 705Z"/><glyph unicode="Ñ" horiz-adv-x="1815" d="M1739 1184H1608V0H1208L549 1004Q553 972 555 923T559 819T562 707T563 602V315H733V0H76V315H213V1184H76V1507H682L1272 610Q1263 679 1260 774T1257 999V1184H1100V1507H1739V1184ZM1401 1827Q1382 1811 1357 1791T1302 1748T1241 1704T1178 1666T1117 1639T1063 1628Q1026 1628 983 1643T898 1677T821 1711T764 1727Q749 1727 729 1717T686 1691T639 1654T590 1614L413 1837Q441 1862 484 1896T574 1961T667 2014T751 2036Q788 2036 831 2021T916 1987T993 1954T1050 1938Q1065 1938 1085 1948T1128 1974T1175 2010T1224 2050L1401 1827Z"/><glyph unicode="Ò" horiz-adv-x="1704" d="M1632 758Q1632 592 1607 470T1535 261T1420 119T1264 31T1073 -13T850 -25Q731 -25 628 -14T438 29T283 116T168 257T97 466T72 754Q72 919 97 1041T169 1249T284 1391T440 1477T631 1520T854 1532Q973 1532 1076 1521T1266 1478T1421 1393T1536 1252T1607 1045T1632 758ZM1190 694V813Q1190 920 1174 995T1119 1119T1015 1189T850 1212Q751 1212 686 1191T583 1122T530 999T514 817V698Q514 591 530 514T585 386T689 312T854 287Q953 287 1018 310T1121 384T1174 510T1190 694ZM1137 1792L965 1620L481 1979L743 2241L1137 1792Z"/><glyph unicode="Ó" horiz-adv-x="1704" d="M1632 758Q1632 592 1607 470T1535 261T1420 119T1264 31T1073 -13T850 -25Q731 -25 628 -14T438 29T283 116T168 257T97 466T72 754Q72 919 97 1041T169 1249T284 1391T440 1477T631 1520T854 1532Q973 1532 1076 1521T1266 1478T1421 1393T1536 1252T1607 1045T1632 758ZM1190 694V813Q1190 920 1174 995T1119 1119T1015 1189T850 1212Q751 1212 686 1191T583 1122T530 999T514 817V698Q514 591 530 514T585 386T689 312T854 287Q953 287 1018 310T1121 384T1174 510T1190 694ZM1225 1979L741 1620L569 1792L963 2241L1225 1979Z"/><glyph unicode="Ô" horiz-adv-x="1704" d="M1632 758Q1632 592 1607 470T1535 261T1420 119T1264 31T1073 -13T850 -25Q731 -25 628 -14T438 29T283 116T168 257T97 466T72 754Q72 919 97 1041T169 1249T284 1391T440 1477T631 1520T854 1532Q973 1532 1076 1521T1266 1478T1421 1393T1536 1252T1607 1045T1632 758ZM1190 694V813Q1190 920 1174 995T1119 1119T1015 1189T850 1212Q751 1212 686 1191T583 1122T530 999T514 817V698Q514 591 530 514T585 386T689 312T854 287Q953 287 1018 310T1121 384T1174 510T1190 694ZM1290 1829L1176 1618L852 1778L530 1618L412 1825L852 2140L1290 1829Z"/><glyph unicode="Õ" horiz-adv-x="1704" d="M1632 758Q1632 592 1607 470T1535 261T1420 119T1264 31T1073 -13T850 -25Q731 -25 628 -14T438 29T283 116T168 257T97 466T72 754Q72 919 97 1041T169 1249T284 1391T440 1477T631 1520T854 1532Q973 1532 1076 1521T1266 1478T1421 1393T1536 1252T1607 1045T1632 758ZM1190 694V813Q1190 920 1174 995T1119 1119T1015 1189T850 1212Q751 1212 686 1191T583 1122T530 999T514 817V698Q514 591 530 514T585 386T689 312T854 287Q953 287 1018 310T1121 384T1174 510T1190 694ZM1346 1827Q1327 1811 1302 1791T1247 1748T1186 1704T1123 1666T1062 1639T1008 1628Q971 1628 928 1643T843 1677T766 1711T709 1727Q694 1727 674 1717T631 1691T584 1654T535 1614L358 1837Q386 1862 429 1896T519 1961T612 2014T696 2036Q733 2036 776 2021T861 1987T938 1954T995 1938Q1010 1938 1030 1948T1073 1974T1120 2010T1169 2050L1346 1827Z"/><glyph unicode="Ö" horiz-adv-x="1704" d="M1632 758Q1632 592 1607 470T1535 261T1420 119T1264 31T1073 -13T850 -25Q731 -25 628 -14T438 29T283 116T168 257T97 466T72 754Q72 919 97 1041T169 1249T284 1391T440 1477T631 1520T854 1532Q973 1532 1076 1521T1266 1478T1421 1393T1536 1252T1607 1045T1632 758ZM1190 694V813Q1190 920 1174 995T1119 1119T1015 1189T850 1212Q751 1212 686 1191T583 1122T530 999T514 817V698Q514 591 530 514T585 386T689 312T854 287Q953 287 1018 310T1121 384T1174 510T1190 694ZM1278 1643H905V1972H1278V1643ZM799 1643H426V1972H799V1643Z"/><glyph unicode="×" horiz-adv-x="1536" d="M472 376L352 492L648 792L352 1088L480 1212L768 912L1068 1204L1184 1088L892 792L1184 492L1068 376L768 668L472 376Z"/><glyph unicode="Ø" horiz-adv-x="1704" d="M1632 758Q1632 592 1607 470T1535 261T1420 119T1264 31T1073 -13T850 -25Q741 -25 645 -16T467 20L334 -170L147 -39L266 131Q219 174 183 232T122 366T85 539T72 754Q72 919 97 1041T169 1249T284 1391T440 1477T631 1520T854 1532Q957 1532 1048 1524T1219 1493L1358 1692L1544 1561L1425 1391Q1475 1349 1513 1291T1578 1155T1618 979T1632 758ZM1194 694V813Q1194 885 1187 942T1163 1044L655 322Q693 302 742 293T854 283Q954 283 1019 306T1124 380T1178 508T1194 694ZM1030 1188Q962 1217 850 1217Q750 1217 685 1195T580 1125T526 1001T510 817V698Q510 633 515 579T535 481L1030 1188Z"/><glyph unicode="Ù" horiz-adv-x="1819" d="M1743 1184H1612V532Q1612 366 1572 259T1448 90T1232 4T918 -20Q735 -20 601 2T380 86T250 253T207 528V1184H76V1507H813V1184H631V530Q631 458 649 416T705 351T796 322T922 315Q993 315 1046 320T1136 346T1190 409T1208 526V1184H1034V1507H1743V1184ZM1194 1792L1022 1620L538 1979L800 2241L1194 1792Z"/><glyph unicode="Ú" horiz-adv-x="1819" d="M1743 1184H1612V532Q1612 366 1572 259T1448 90T1232 4T918 -20Q735 -20 601 2T380 86T250 253T207 528V1184H76V1507H813V1184H631V530Q631 458 649 416T705 351T796 322T922 315Q993 315 1046 320T1136 346T1190 409T1208 526V1184H1034V1507H1743V1184ZM1282 1979L798 1620L626 1792L1020 2241L1282 1979Z"/><glyph unicode="Û" horiz-adv-x="1819" d="M1743 1184H1612V532Q1612 366 1572 259T1448 90T1232 4T918 -20Q735 -20 601 2T380 86T250 253T207 528V1184H76V1507H813V1184H631V530Q631 458 649 416T705 351T796 322T922 315Q993 315 1046 320T1136 346T1190 409T1208 526V1184H1034V1507H1743V1184ZM1347 1829L1233 1618L909 1778L587 1618L469 1825L909 2140L1347 1829Z"/><glyph unicode="Ü" horiz-adv-x="1819" d="M1743 1184H1612V532Q1612 366 1572 259T1448 90T1232 4T918 -20Q735 -20 601 2T380 86T250 253T207 528V1184H76V1507H813V1184H631V530Q631 458 649 416T705 351T796 322T922 315Q993 315 1046 320T1136 346T1190 409T1208 526V1184H1034V1507H1743V1184ZM1348 1643H975V1972H1348V1643ZM869 1643H496V1972H869V1643Z"/><glyph unicode="Ý" horiz-adv-x="1794" d="M1735 1184H1608L1104 528V315H1292V0H492V315H680V518L186 1184H59V1507H825V1204H647L721 1104Q754 1059 781 1021T834 946T883 872T936 793Q960 830 984 867T1035 941T1092 1019T1157 1104L1237 1204H1049V1507H1735V1184ZM1270 1979L786 1620L614 1792L1008 2241L1270 1979Z"/><glyph unicode="Þ" horiz-adv-x="1589" d="M1540 782Q1540 662 1521 577T1465 433T1378 341T1262 288T1122 264T961 258H637V0H76V315H213V1184H76V1507H637V1303H965Q1050 1303 1125 1298T1265 1275T1380 1223T1466 1131T1521 988T1540 782ZM1116 778Q1116 838 1105 877T1073 939T1024 972T961 981H637V571H965Q999 571 1027 581T1075 614T1105 678T1116 778Z"/><glyph unicode="ß" horiz-adv-x="1528" d="M1483 477Q1483 365 1465 287T1391 166Q1349 133 1293 108T1161 61T987 23T762 -12L721 285Q796 294 853 303T954 324T1026 349T1073 381Q1098 404 1101 427T1104 479Q1104 510 1101 532T1073 578Q1036 613 959 633T766 670V911Q798 959 823 996T865 1065T890 1126T899 1190Q899 1220 892 1237T865 1264T809 1275T713 1278Q690 1278 673 1275T644 1263T627 1237T621 1192V0H76V295H219V694H76V993H219V1212Q219 1314 245 1381T330 1487T486 1543T725 1559Q874 1559 979 1546T1152 1493T1251 1383T1282 1194Q1282 1143 1270 1104T1231 1029T1162 961T1061 889Q1110 880 1161 866T1259 830T1346 781T1413 719Q1447 676 1465 617T1483 477Z"/><glyph unicode="à" horiz-adv-x="1300" d="M1253 0H791L760 98Q733 84 692 65T597 29T475 -1T330 -14Q269 -14 219 6T132 68T75 173T55 322Q55 353 58 388T70 455T94 515T135 559Q168 580 219 592T344 612T519 622T750 625V727Q750 744 747 755T732 774T700 785T641 788Q618 788 583 788T510 784V690H129V991Q171 998 232 1004T362 1015T504 1023T641 1026Q791 1026 889 1007T1046 947T1127 846T1151 702V295H1253V0ZM750 258V444Q698 444 661 443T594 441T542 436T498 428Q476 423 467 397T457 336Q457 282 476 260T549 238Q572 238 600 239T655 244T708 250T750 258ZM934 1247L762 1075L278 1434L540 1696L934 1247Z"/><glyph unicode="á" horiz-adv-x="1300" d="M1253 0H791L760 98Q733 84 692 65T597 29T475 -1T330 -14Q269 -14 219 6T132 68T75 173T55 322Q55 353 58 388T70 455T94 515T135 559Q168 580 219 592T344 612T519 622T750 625V727Q750 744 747 755T732 774T700 785T641 788Q618 788 583 788T510 784V690H129V991Q171 998 232 1004T362 1015T504 1023T641 1026Q791 1026 889 1007T1046 947T1127 846T1151 702V295H1253V0ZM750 258V444Q698 444 661 443T594 441T542 436T498 428Q476 423 467 397T457 336Q457 282 476 260T549 238Q572 238 600 239T655 244T708 250T750 258ZM1022 1434L538 1075L366 1247L760 1696L1022 1434Z"/><glyph unicode="â" horiz-adv-x="1300" d="M1253 0H791L760 98Q733 84 692 65T597 29T475 -1T330 -14Q269 -14 219 6T132 68T75 173T55 322Q55 353 58 388T70 455T94 515T135 559Q168 580 219 592T344 612T519 622T750 625V727Q750 744 747 755T732 774T700 785T641 788Q618 788 583 788T510 784V690H129V991Q171 998 232 1004T362 1015T504 1023T641 1026Q791 1026 889 1007T1046 947T1127 846T1151 702V295H1253V0ZM750 258V444Q698 444 661 443T594 441T542 436T498 428Q476 423 467 397T457 336Q457 282 476 260T549 238Q572 238 600 239T655 244T708 250T750 258ZM1087 1284L973 1073L649 1233L327 1073L209 1280L649 1595L1087 1284Z"/><glyph unicode="ã" horiz-adv-x="1300" d="M1253 0H791L760 98Q733 84 692 65T597 29T475 -1T330 -14Q269 -14 219 6T132 68T75 173T55 322Q55 353 58 388T70 455T94 515T135 559Q168 580 219 592T344 612T519 622T750 625V727Q750 744 747 755T732 774T700 785T641 788Q618 788 583 788T510 784V690H129V991Q171 998 232 1004T362 1015T504 1023T641 1026Q791 1026 889 1007T1046 947T1127 846T1151 702V295H1253V0ZM750 258V444Q698 444 661 443T594 441T542 436T498 428Q476 423 467 397T457 336Q457 282 476 260T549 238Q572 238 600 239T655 244T708 250T750 258ZM1143 1282Q1124 1266 1099 1246T1044 1203T983 1159T920 1121T859 1094T805 1083Q768 1083 725 1098T640 1132T563 1166T506 1182Q491 1182 471 1172T428 1146T381 1109T332 1069L155 1292Q183 1317 226 1351T316 1416T409 1469T493 1491Q530 1491 573 1476T658 1442T735 1409T792 1393Q807 1393 827 1403T870 1429T917 1465T966 1505L1143 1282Z"/><glyph unicode="ä" horiz-adv-x="1300" d="M1253 0H791L760 98Q733 84 692 65T597 29T475 -1T330 -14Q269 -14 219 6T132 68T75 173T55 322Q55 353 58 388T70 455T94 515T135 559Q168 580 219 592T344 612T519 622T750 625V727Q750 744 747 755T732 774T700 785T641 788Q618 788 583 788T510 784V690H129V991Q171 998 232 1004T362 1015T504 1023T641 1026Q791 1026 889 1007T1046 947T1127 846T1151 702V295H1253V0ZM750 258V444Q698 444 661 443T594 441T542 436T498 428Q476 423 467 397T457 336Q457 282 476 260T549 238Q572 238 600 239T655 244T708 250T750 258ZM1075 1098H702V1427H1075V1098ZM596 1098H223V1427H596V1098Z"/><glyph unicode="å" horiz-adv-x="1300" d="M1253 0H791L760 98Q733 84 692 65T597 29T475 -1T330 -14Q269 -14 219 6T132 68T75 173T55 322Q55 353 58 388T70 455T94 515T135 559Q168 580 219 592T344 612T519 622T750 625V727Q750 744 747 755T732 774T700 785T641 788Q618 788 583 788T510 784V690H129V991Q171 998 232 1004T362 1015T504 1023T641 1026Q791 1026 889 1007T1046 947T1127 846T1151 702V295H1253V0ZM750 258V444Q698 444 661 443T594 441T542 436T498 428Q476 423 467 397T457 336Q457 282 476 260T549 238Q572 238 600 239T655 244T708 250T750 258ZM999 1335Q999 1261 976 1214T909 1139T799 1102T649 1092Q563 1092 498 1102T388 1139T322 1213T299 1335Q299 1410 321 1458T388 1534T497 1574T649 1585Q735 1585 800 1574T910 1535T976 1458T999 1335ZM772 1335Q772 1374 766 1397T745 1434T707 1451T649 1456Q615 1456 592 1452T555 1434T534 1398T528 1335Q528 1297 534 1275T554 1240T592 1225T649 1221Q683 1221 706 1224T744 1240T765 1274T772 1335Z"/><glyph unicode="æ" horiz-adv-x="1958" d="M1870 436H1151Q1152 370 1160 328T1192 262T1255 228T1360 219Q1402 219 1429 222T1470 229V332H1851V31Q1834 26 1794 19T1690 4T1543 -9T1356 -14Q1254 -14 1175 -8T1034 14T926 57T846 125Q710 59 578 23T330 -14Q269 -14 219 6T132 68T75 173T55 322Q55 353 58 386T69 450T92 504T131 543Q203 585 356 603T750 621V727Q750 744 747 755T732 774T700 785T641 788Q618 788 583 788T510 784V690H129V991Q171 998 232 1004T362 1015T504 1023T641 1026Q759 1026 843 1005T989 942Q1057 989 1141 1006T1329 1024Q1438 1024 1520 1017T1663 991T1763 939T1826 855T1860 733T1870 565V436ZM774 264Q765 299 760 347T752 444Q696 444 658 443T591 441T541 436T498 428Q476 423 467 397T457 336Q457 282 476 260T549 238Q584 238 612 239T667 244T719 252T774 264ZM1485 621Q1483 675 1477 707T1454 757T1406 780T1323 786Q1275 786 1246 781T1198 758T1170 708T1151 621H1485Z"/><glyph unicode="ç" horiz-adv-x="1274" d="M1174 31Q1114 18 1028 6T815 -12L868 -295Q850 -313 813 -335T722 -381T596 -425T440 -459L385 -205Q416 -199 449 -191T512 -175T565 -157T598 -141L573 -12Q438 -7 343 18T188 101T100 256T72 504Q72 613 87 694T133 833T214 928T331 987T487 1017T684 1026Q776 1026 849 1022T980 1010T1086 994T1174 975V580H793V754Q774 759 749 761T680 764Q609 764 569 753T507 712T481 633T475 508Q475 433 481 382T509 300T572 254T684 240Q710 240 737 242T793 250V432H1174V31Z"/><glyph unicode="è" horiz-adv-x="1280" d="M1192 436H473Q474 370 482 328T514 262T577 228T682 219Q724 219 751 222T793 229V332H1174V31Q1157 26 1116 19T1012 4T865 -9T678 -14Q568 -14 481 -6T327 24T211 83T132 178T87 316T72 504Q72 670 108 772T216 930T396 1005T651 1024Q760 1024 842 1017T985 991T1085 939T1148 855T1182 733T1192 565V436ZM807 621Q805 675 799 707T776 757T728 780T645 786Q597 786 568 781T520 758T492 708T473 621H807ZM924 1247L752 1075L268 1434L530 1696L924 1247Z"/><glyph unicode="é" horiz-adv-x="1280" d="M1192 436H473Q474 370 482 328T514 262T577 228T682 219Q724 219 751 222T793 229V332H1174V31Q1157 26 1116 19T1012 4T865 -9T678 -14Q568 -14 481 -6T327 24T211 83T132 178T87 316T72 504Q72 670 108 772T216 930T396 1005T651 1024Q760 1024 842 1017T985 991T1085 939T1148 855T1182 733T1192 565V436ZM807 621Q805 675 799 707T776 757T728 780T645 786Q597 786 568 781T520 758T492 708T473 621H807ZM1012 1434L528 1075L356 1247L750 1696L1012 1434Z"/><glyph unicode="ê" horiz-adv-x="1280" d="M1192 436H473Q474 370 482 328T514 262T577 228T682 219Q724 219 751 222T793 229V332H1174V31Q1157 26 1116 19T1012 4T865 -9T678 -14Q568 -14 481 -6T327 24T211 83T132 178T87 316T72 504Q72 670 108 772T216 930T396 1005T651 1024Q760 1024 842 1017T985 991T1085 939T1148 855T1182 733T1192 565V436ZM807 621Q805 675 799 707T776 757T728 780T645 786Q597 786 568 781T520 758T492 708T473 621H807ZM1077 1284L963 1073L639 1233L317 1073L199 1280L639 1595L1077 1284Z"/><glyph unicode="ë" horiz-adv-x="1280" d="M1192 436H473Q474 370 482 328T514 262T577 228T682 219Q724 219 751 222T793 229V332H1174V31Q1157 26 1116 19T1012 4T865 -9T678 -14Q568 -14 481 -6T327 24T211 83T132 178T87 316T72 504Q72 670 108 772T216 930T396 1005T651 1024Q760 1024 842 1017T985 991T1085 939T1148 855T1182 733T1192 565V436ZM807 621Q805 675 799 707T776 757T728 780T645 786Q597 786 568 781T520 758T492 708T473 621H807ZM1065 1098H692V1427H1065V1098ZM586 1098H213V1427H586V1098Z"/><glyph unicode="ì" horiz-adv-x="791" d="M743 0H76V295H219V690H76V993H621V295H743V0ZM937 1247L765 1075L281 1434L543 1696L937 1247Z"/><glyph unicode="í" horiz-adv-x="791" d="M743 0H76V295H219V690H76V993H621V295H743V0ZM1025 1434L541 1075L369 1247L763 1696L1025 1434Z"/><glyph unicode="î" horiz-adv-x="791" d="M743 0H76V295H219V690H76V993H621V295H743V0ZM834 1284L719 1073L395 1233L74 1073L-45 1280L395 1595L834 1284Z"/><glyph unicode="ï" horiz-adv-x="791" d="M743 0H76V295H219V690H76V993H621V295H743V0ZM1078 1098H705V1427H1078V1098ZM599 1098H226V1427H599V1098Z"/><glyph unicode="ð" horiz-adv-x="1364" d="M1384 946H1262Q1271 884 1276 821T1282 694Q1282 540 1270 428T1230 236T1157 106T1043 27T884 -12T672 -23Q568 -23 484 -16T333 12T218 70T137 167T90 312T74 514Q74 631 87 713T125 851T182 940T255 989T340 1011T434 1016Q468 1016 523 1008T639 987T760 956T868 918Q866 936 863 953T854 989L848 1018Q835 1074 820 1121T793 1204L786 1219Q783 1230 779 1237T772 1251H573V1559H1077Q1097 1523 1129 1442T1194 1247H1384V946ZM881 506Q881 516 881 537T881 583T881 628T879 659Q840 672 809 681T747 695T686 702T614 705Q579 705 553 699T510 673T485 613T477 506Q477 424 485 372T515 291T577 251T682 240Q747 240 786 255T847 304T874 387T881 506Z"/><glyph unicode="ñ" horiz-adv-x="1450" d="M1403 0H889V639Q889 680 864 694T778 709Q749 709 720 706T666 700T620 692T590 686V295H723V0H76V295H188V690H76V993H549L580 897Q605 912 653 932T761 971T885 1003T1008 1016Q1147 1016 1218 958T1290 770V295H1403V0ZM1219 1282Q1200 1266 1175 1246T1120 1203T1059 1159T996 1121T935 1094T881 1083Q844 1083 801 1098T716 1132T639 1166T582 1182Q567 1182 547 1172T504 1146T457 1109T408 1069L231 1292Q259 1317 302 1351T392 1416T485 1469T569 1491Q606 1491 649 1476T734 1442T811 1409T868 1393Q883 1393 903 1403T946 1429T993 1465T1042 1505L1219 1282Z"/><glyph unicode="ò" horiz-adv-x="1339" d="M1268 508Q1268 350 1237 249T1135 90T949 9T668 -14Q557 -14 470 -5T316 27T203 87T128 183T85 320T72 504Q72 661 103 762T205 922T390 1003T672 1026Q838 1026 952 1004T1136 925T1237 766T1268 508ZM864 504Q864 576 858 625T832 706T773 750T668 764Q602 764 564 751T506 708T481 629T475 508Q475 436 481 385T507 302T567 255T672 240Q738 240 776 254T833 299T858 381T864 504ZM955 1247L783 1075L299 1434L561 1696L955 1247Z"/><glyph unicode="ó" horiz-adv-x="1339" d="M1268 508Q1268 350 1237 249T1135 90T949 9T668 -14Q557 -14 470 -5T316 27T203 87T128 183T85 320T72 504Q72 661 103 762T205 922T390 1003T672 1026Q838 1026 952 1004T1136 925T1237 766T1268 508ZM864 504Q864 576 858 625T832 706T773 750T668 764Q602 764 564 751T506 708T481 629T475 508Q475 436 481 385T507 302T567 255T672 240Q738 240 776 254T833 299T858 381T864 504ZM1043 1434L559 1075L387 1247L781 1696L1043 1434Z"/><glyph unicode="ô" horiz-adv-x="1339" d="M1268 508Q1268 350 1237 249T1135 90T949 9T668 -14Q557 -14 470 -5T316 27T203 87T128 183T85 320T72 504Q72 661 103 762T205 922T390 1003T672 1026Q838 1026 952 1004T1136 925T1237 766T1268 508ZM864 504Q864 576 858 625T832 706T773 750T668 764Q602 764 564 751T506 708T481 629T475 508Q475 436 481 385T507 302T567 255T672 240Q738 240 776 254T833 299T858 381T864 504ZM1108 1284L994 1073L670 1233L348 1073L230 1280L670 1595L1108 1284Z"/><glyph unicode="õ" horiz-adv-x="1339" d="M1268 508Q1268 350 1237 249T1135 90T949 9T668 -14Q557 -14 470 -5T316 27T203 87T128 183T85 320T72 504Q72 661 103 762T205 922T390 1003T672 1026Q838 1026 952 1004T1136 925T1237 766T1268 508ZM864 504Q864 576 858 625T832 706T773 750T668 764Q602 764 564 751T506 708T481 629T475 508Q475 436 481 385T507 302T567 255T672 240Q738 240 776 254T833 299T858 381T864 504ZM1164 1282Q1145 1266 1120 1246T1065 1203T1004 1159T941 1121T880 1094T826 1083Q789 1083 746 1098T661 1132T584 1166T527 1182Q512 1182 492 1172T449 1146T402 1109T353 1069L176 1292Q204 1317 247 1351T337 1416T430 1469T514 1491Q551 1491 594 1476T679 1442T756 1409T813 1393Q828 1393 848 1403T891 1429T938 1465T987 1505L1164 1282Z"/><glyph unicode="ö" horiz-adv-x="1339" d="M1268 508Q1268 350 1237 249T1135 90T949 9T668 -14Q557 -14 470 -5T316 27T203 87T128 183T85 320T72 504Q72 661 103 762T205 922T390 1003T672 1026Q838 1026 952 1004T1136 925T1237 766T1268 508ZM864 504Q864 576 858 625T832 706T773 750T668 764Q602 764 564 751T506 708T481 629T475 508Q475 436 481 385T507 302T567 255T672 240Q738 240 776 254T833 299T858 381T864 504ZM1096 1098H723V1427H1096V1098ZM617 1098H244V1427H617V1098Z"/><glyph unicode="÷" horiz-adv-x="1536" d="M208 684V896H1328V684H208ZM768 228Q704 228 656 276T608 388Q608 452 650 500T768 548Q840 548 884 500T928 388Q928 324 880 276T768 228ZM768 1028Q704 1028 656 1076T608 1188Q608 1252 650 1300T768 1348Q840 1348 884 1300T928 1188Q928 1124 880 1076T768 1028Z"/><glyph unicode="ø" horiz-adv-x="1339" d="M1270 1040Q1238 1002 1213 973Q1192 947 1175 927T1157 905Q1216 846 1242 750T1268 508Q1268 350 1237 249T1135 90T949 9T668 -14Q512 -14 401 4L254 -170L78 -23Q107 12 131 40Q141 52 150 63T167 83T179 97T184 102Q124 162 98 259T72 504Q72 661 103 762T205 922T390 1003T672 1026Q752 1026 818 1022T940 1006Q940 1006 947 1013T965 1034T990 1063T1018 1097Q1051 1137 1094 1188L1270 1040ZM760 760Q741 765 719 766T668 768Q600 768 561 755T502 712T477 632T471 508Q471 482 471 459T473 416L760 760ZM868 504Q868 529 868 550T866 590Q786 494 723 418Q696 386 670 355T624 300T591 261T578 246Q598 241 621 239T672 236Q739 236 778 250T837 296T862 379T868 504Z"/><glyph unicode="ù" horiz-adv-x="1430" d="M1382 0H901L870 96Q845 81 797 61T689 22T565 -10T442 -23Q302 -23 231 35T160 223V690H47V993H561V354Q561 333 567 320T586 299T620 288T672 285Q700 285 729 287T784 293T830 301T860 307V690H727V993H1262V295H1382V0ZM1000 1247L828 1075L344 1434L606 1696L1000 1247Z"/><glyph unicode="ú" horiz-adv-x="1430" d="M1382 0H901L870 96Q845 81 797 61T689 22T565 -10T442 -23Q302 -23 231 35T160 223V690H47V993H561V354Q561 333 567 320T586 299T620 288T672 285Q700 285 729 287T784 293T830 301T860 307V690H727V993H1262V295H1382V0ZM1088 1434L604 1075L432 1247L826 1696L1088 1434Z"/><glyph unicode="û" horiz-adv-x="1430" d="M1382 0H901L870 96Q845 81 797 61T689 22T565 -10T442 -23Q302 -23 231 35T160 223V690H47V993H561V354Q561 333 567 320T586 299T620 288T672 285Q700 285 729 287T784 293T830 301T860 307V690H727V993H1262V295H1382V0ZM1153 1284L1039 1073L715 1233L393 1073L275 1280L715 1595L1153 1284Z"/><glyph unicode="ü" horiz-adv-x="1430" d="M1382 0H901L870 96Q845 81 797 61T689 22T565 -10T442 -23Q302 -23 231 35T160 223V690H47V993H561V354Q561 333 567 320T586 299T620 288T672 285Q700 285 729 287T784 293T830 301T860 307V690H727V993H1262V295H1382V0ZM1100 1098H727V1427H1100V1098ZM621 1098H248V1427H621V1098Z"/><glyph unicode="ý" horiz-adv-x="1493" d="M1446 690H1356L872 -129H1014V-410H297V-129H532L594 -25L154 690H47V993H727V711H582L676 553Q719 481 751 413T805 297Q827 345 858 412T932 553L1022 711H889V993H1446V690ZM1119 1434L635 1075L463 1247L857 1696L1119 1434Z"/><glyph unicode="þ" horiz-adv-x="1389" d="M1315 502Q1315 362 1297 264T1238 103T1132 13T975 -16Q910 -16 847 -7T729 14T632 40T565 63V-119H698V-410H51V-119H164V1251H51V1559H565V903Q590 915 636 934T740 972T862 1003T985 1016Q1077 1016 1140 988T1242 899T1298 739T1315 502ZM909 498Q909 565 903 607T883 674T847 706T793 715Q751 715 719 713T660 708T611 701T565 692V281Q583 278 604 276T653 271T714 268T793 266Q821 266 842 278T879 317T901 388T909 498Z"/><glyph unicode="ÿ" horiz-adv-x="1493" d="M1446 690H1356L872 -129H1014V-410H297V-129H532L594 -25L154 690H47V993H727V711H582L676 553Q719 481 751 413T805 297Q827 345 858 412T932 553L1022 711H889V993H1446V690ZM1233 1098H860V1427H1233V1098ZM754 1098H381V1427H754V1098Z"/><glyph unicode="ı" horiz-adv-x="791" d="M743 0H76V295H219V690H76V993H621V295H743V0Z"/><glyph unicode="Ł" horiz-adv-x="1550" d="M1491 0H76V319H213V578L104 559L61 811L213 838V1188H76V1507H829V1188H637V913L848 950L891 698L637 653V309H1092V582H1491V0Z"/><glyph unicode="ł" horiz-adv-x="799" d="M752 0H55V299H199V575L106 559L63 811L199 834V1260H55V1559H600V905L698 922L741 670L600 645V299H752V0Z"/><glyph unicode="Œ" horiz-adv-x="2417" d="M2300 0H831Q702 0 596 9T406 46T259 125T155 259T93 464T72 752Q72 919 92 1040T154 1245T258 1380T405 1460T596 1497T831 1507H2300V956H1901V1204H1446V899H1761V614H1446V295H1901V580H2300V0ZM1042 309V1188H834Q732 1188 668 1166T568 1097T519 976T506 801V702Q506 600 519 526T568 404T668 332T834 309H1042Z"/><glyph unicode="œ" horiz-adv-x="2044" d="M1956 436H1237Q1238 370 1246 328T1278 262T1341 228T1446 219Q1488 219 1515 222T1556 229V332H1937V31Q1920 26 1880 19T1776 4T1629 -9T1442 -14Q1360 -14 1298 -7T1187 13T1103 47T1038 94Q980 40 884 13T637 -14Q470 -14 357 8T173 87T72 245T41 504Q41 661 72 762T174 922T359 1003T641 1026Q791 1026 887 999T1040 918Q1099 972 1190 998T1415 1024Q1524 1024 1606 1017T1749 991T1849 939T1912 855T1946 733T1956 565V436ZM834 504Q834 576 828 625T802 706T742 750T637 764Q571 764 533 751T475 708T450 629T444 508Q444 436 450 385T476 302T536 255T641 240Q707 240 745 254T803 299T828 381T834 504ZM1571 621Q1569 675 1563 707T1540 757T1492 780T1409 786Q1361 786 1332 781T1284 758T1256 708T1237 621H1571Z"/><glyph unicode="Š" horiz-adv-x="1556" d="M1493 434Q1493 345 1479 277T1430 159T1340 74T1201 19T1006 -11T748 -20Q620 -20 509 -14T311 0T165 18T80 33V500H479V270Q498 265 530 262T601 257T678 253T752 252Q852 252 912 261T1003 289T1043 341T1053 418Q1053 465 1041 491T994 533T893 556T723 575Q590 589 491 604T319 643T200 702T125 791T86 921T74 1102Q74 1229 115 1311T240 1442T454 1509T760 1528Q816 1528 881 1525T1013 1518T1144 1507T1264 1493T1360 1479T1421 1466V1038H1022V1235Q1010 1237 977 1239T904 1243T824 1246T756 1247Q681 1247 633 1241T557 1220T519 1177T508 1106Q508 1063 517 1036T559 991T650 963T811 942Q948 928 1052 914T1232 876T1358 820T1438 734T1480 609T1493 434ZM1218 1934L778 1618L340 1929L454 2140L778 1981L1100 2140L1218 1934Z"/><glyph unicode="š" horiz-adv-x="1206" d="M1153 309Q1153 242 1141 193T1102 108T1032 49T927 13T782 -6T594 -12Q496 -12 412 -8T262 3T148 16T76 29V326H446V207Q469 204 508 202T594 199Q652 199 686 201T738 212T761 237T766 279Q766 301 761 314T732 337T656 352T512 367Q413 375 341 386T219 416T138 459T89 520T65 603T59 713Q59 807 92 868T190 965T353 1014T580 1028Q662 1028 741 1024T890 1013T1016 996T1108 973V690H737V799Q726 801 708 803T667 806T624 808T586 809Q543 809 515 807T470 797T447 775T440 739Q440 714 448 699T483 675T560 661T696 649Q798 641 871 632T996 608T1077 570T1125 512T1147 427T1153 309ZM1042 1389L602 1073L164 1384L278 1595L602 1436L924 1595L1042 1389Z"/><glyph unicode="Ÿ" horiz-adv-x="1794" d="M1735 1184H1608L1104 528V315H1292V0H492V315H680V518L186 1184H59V1507H825V1204H647L721 1104Q754 1059 781 1021T834 946T883 872T936 793Q960 830 984 867T1035 941T1092 1019T1157 1104L1237 1204H1049V1507H1735V1184ZM1362 1643H989V1972H1362V1643ZM883 1643H510V1972H883V1643Z"/><glyph unicode="Ž" horiz-adv-x="1530" d="M1470 0H76V336L504 760Q565 820 624 877T737 985T837 1079T919 1155T978 1208T1008 1233H494V958H94V1507H1452V1161L1020 733Q915 629 834 550T694 414T594 321T532 266H1071V580H1470V0ZM1204 1934L764 1618L326 1929L440 2140L764 1981L1086 2140L1204 1934Z"/><glyph unicode="ž" horiz-adv-x="1274" d="M1227 0H76V276L354 479Q514 594 623 669T776 768H475V637H94V993H1194V717L877 475Q825 436 770 397T666 322T577 260T518 217H846V393H1227V0ZM1077 1389L637 1073L199 1384L313 1595L637 1436L959 1595L1077 1389Z"/><glyph unicode="ƒ" horiz-adv-x="1077" d="M1001 1280Q917 1267 869 1256T794 1227T757 1184T739 1114L696 870H928V571H643L469 -410L82 -340L244 571H139V870H297L356 1210Q367 1274 384 1323T431 1410T504 1476T613 1524T766 1560T973 1587L1001 1280Z"/><glyph unicode="ˆ" horiz-adv-x="1024" d="M950 1284L836 1073L512 1233L190 1073L72 1280L512 1595L950 1284Z"/><glyph unicode="ˇ" horiz-adv-x="1024" d="M952 1389L512 1073L74 1384L188 1595L512 1436L834 1595L952 1389Z"/><glyph unicode="˘" horiz-adv-x="1024" d="M940 1151Q924 1141 895 1132T828 1115T747 1101T662 1090T580 1084T510 1081Q480 1081 442 1083T363 1091T279 1102T200 1116T133 1133T84 1151V1507H393V1372Q436 1348 510 1348Q547 1348 577 1353T631 1372V1507H940V1151Z"/><glyph unicode="˙" horiz-adv-x="1024" d="M756 1108H268V1497H756V1108Z"/><glyph unicode="˚" horiz-adv-x="1024" d="M862 1335Q862 1261 839 1214T772 1139T662 1102T512 1092Q426 1092 361 1102T251 1139T185 1213T162 1335Q162 1410 184 1458T251 1534T360 1574T512 1585Q598 1585 663 1574T773 1535T839 1458T862 1335ZM635 1335Q635 1374 629 1397T608 1434T570 1451T512 1456Q478 1456 455 1452T418 1434T397 1398T391 1335Q391 1297 397 1275T417 1240T455 1225T512 1221Q546 1221 569 1224T607 1240T628 1274T635 1335Z"/><glyph unicode="˛" horiz-adv-x="1024" d="M764 -201L709 -461Q625 -449 554 -428T429 -382T337 -335T281 -293L352 80L584 31L551 -141Q561 -148 586 -156T642 -173T705 -189T764 -201Z"/><glyph unicode="˜" horiz-adv-x="1024" d="M1006 1282Q987 1266 962 1246T907 1203T846 1159T783 1121T722 1094T668 1083Q631 1083 588 1098T503 1132T426 1166T369 1182Q354 1182 334 1172T291 1146T244 1109T195 1069L18 1292Q46 1317 89 1351T179 1416T272 1469T356 1491Q393 1491 436 1476T521 1442T598 1409T655 1393Q670 1393 690 1403T733 1429T780 1465T829 1505L1006 1282Z"/><glyph unicode="˝" horiz-adv-x="1024" d="M1034 1495L618 1057L455 1174L764 1683L1034 1495ZM573 1495L158 1057L-6 1174L303 1683L573 1495Z"/><glyph unicode="̄" horiz-adv-x="1024" d="M842 1116H182V1442H842V1116Z"/><glyph unicode="Δ" horiz-adv-x="1536" d="M76 0L652 1536H884L1456 0H76ZM352 148H1164L752 1256L352 148Z"/><glyph unicode="Ω" horiz-adv-x="1664" d="M832 1376Q644 1376 510 1234T376 836Q376 592 464 432T724 180V0H88V196H536Q416 240 304 406T192 848Q192 1112 358 1330T832 1548Q1140 1548 1306 1338T1472 848Q1472 572 1360 406T1128 196H1576V0H940V180Q1112 272 1200 432T1288 836Q1288 1044 1162 1210T832 1376Z"/><glyph unicode="μ" horiz-adv-x="1408" d="M252 -424Q196 -424 168 -392T140 -280Q140 -200 144 -106T156 100Q164 200 168 256T172 328Q176 348 176 356V1176H368V320Q368 228 450 176T628 124Q760 124 858 190T1008 380V1176H1200V308L1220 0H1056L1020 176Q952 68 836 14T572 -40Q520 -40 444 -14T324 60Q324 -28 352 -112T380 -264Q380 -424 252 -424Z"/><glyph unicode="π" horiz-adv-x="1408" d="M296 0V1028H12V1176H1316V1028H996V344Q996 228 1042 184T1152 140Q1200 140 1232 142T1296 156V28Q1248 4 1206 -6T1088 -16Q960 -16 886 64T812 336V1028H484V0H296Z"/><glyph unicode="–" horiz-adv-x="1106" d="M1020 455H86V745H1020V455Z"/><glyph unicode="—" horiz-adv-x="1700" d="M1614 455H86V745H1614V455Z"/><glyph unicode="‘" horiz-adv-x="829" d="M686 1012L502 920L178 1481L547 1694L686 1012Z"/><glyph unicode="’" horiz-adv-x="827" d="M649 1481L326 920L141 1012L281 1694L649 1481Z"/><glyph unicode="‚" horiz-adv-x="827" d="M649 270L326 -291L141 -199L281 483L649 270Z"/><glyph unicode="“" horiz-adv-x="1341" d="M1198 1012L1014 920L690 1481L1059 1694L1198 1012ZM686 1012L502 920L178 1481L547 1694L686 1012Z"/><glyph unicode="”" horiz-adv-x="1339" d="M1161 1481L838 920L653 1012L793 1694L1161 1481ZM649 1481L326 920L141 1012L281 1694L649 1481Z"/><glyph unicode="„" horiz-adv-x="1339" d="M1161 270L838 -291L653 -199L793 483L1161 270ZM649 270L326 -291L141 -199L281 483L649 270Z"/><glyph unicode="†" horiz-adv-x="1167" d="M1092 772H731V-276H436V772H76V1051H436V1229H281V1507H887V1229H731V1051H1092V772Z"/><glyph unicode="‡" horiz-adv-x="1167" d="M1092 182H731V4H887V-274H281V4H436V182H76V461H436V772H76V1051H436V1229H281V1507H887V1229H731V1051H1092V772H731V461H1092V182Z"/><glyph unicode="•" horiz-adv-x="1073" d="M948 582Q948 457 924 374T850 242T723 172T539 152Q432 152 354 173T225 244T150 377T125 586Q125 711 149 794T223 926T350 996T535 1016Q641 1016 719 995T848 924T923 791T948 582Z"/><glyph unicode="…" horiz-adv-x="2390" d="M2234 0H1749V389H2234V0ZM1438 0H952V389H1438V0ZM641 0H156V389H641V0Z"/><glyph unicode="‰" horiz-adv-x="3797" d="M3725 487Q3725 327 3693 227T3596 71T3436 -6T3215 -27Q3090 -27 2996 -7T2838 68T2742 223T2710 483Q2710 643 2742 743T2839 899T2999 976T3219 997Q3344 997 3439 977T3597 902T3693 747T3725 487ZM2617 487Q2617 327 2585 227T2488 71T2328 -6T2107 -27Q1982 -27 1888 -7T1730 68T1634 223T1602 483Q1602 643 1634 743T1731 899T1891 976T2111 997Q2236 997 2331 977T2489 902T2585 747T2617 487ZM1087 1020Q1087 860 1055 760T958 604T798 527T578 506Q453 506 358 526T200 601T104 756T72 1016Q72 1176 104 1276T201 1432T361 1509T582 1530Q707 1530 801 1510T959 1435T1055 1280T1087 1020ZM1778 1444L1225 -66L907 49L1460 1559L1778 1444ZM3371 446V520Q3371 591 3365 634T3341 701T3293 733T3215 741Q3167 741 3138 734T3092 703T3070 638T3064 524V451Q3064 380 3070 336T3094 266T3141 231T3219 221Q3267 221 3296 229T3342 263T3365 331T3371 446ZM733 979V1053Q733 1123 727 1166T703 1234T656 1266T578 1274Q530 1274 501 1267T455 1236T432 1170T426 1057V983Q426 912 432 868T456 798T504 764T582 754Q630 754 659 762T705 796T727 864T733 979ZM2263 446V520Q2263 591 2257 634T2233 701T2185 733T2107 741Q2059 741 2030 734T1984 703T1962 638T1956 524V451Q1956 380 1962 336T1986 266T2033 231T2111 221Q2159 221 2188 229T2234 263T2257 331T2263 446Z"/><glyph unicode="‹" horiz-adv-x="848" d="M686 72L446 -47L127 469L446 989L686 870L469 469L686 72Z"/><glyph unicode="›" horiz-adv-x="848" d="M721 469L401 -47L162 72L379 469L162 870L401 989L721 469Z"/><glyph unicode="⁄" horiz-adv-x="870" d="M870 1444L317 -66L0 49L553 1559L870 1444Z"/><glyph unicode="€" horiz-adv-x="1575" d="M1458 43Q1430 35 1367 25T1221 5T1042 -11T852 -18Q722 -18 613 3T419 78T275 224T188 459H57V694H164V807H57V1042H188Q217 1186 277 1279T423 1427T618 1504T856 1526Q950 1526 1045 1520T1222 1503T1367 1483T1458 1464V1044H1059V1188Q1024 1193 968 1196T852 1200Q790 1200 747 1191T673 1162T625 1112T596 1042H874V807H580V694H874V459H600Q611 421 630 392T679 342T752 310T856 299Q919 299 971 302T1059 311V481H1458V43Z"/><glyph unicode="℗" horiz-adv-x="1884" d="M1812 752Q1812 598 1793 481T1731 278T1621 133T1456 40T1232 -10T942 -25Q780 -25 653 -10T428 40T264 133T154 277T92 481T72 752Q72 905 91 1022T153 1227T263 1372T428 1466T652 1517T942 1532Q1104 1532 1231 1517T1456 1467T1620 1373T1730 1227T1792 1023T1812 752ZM1602 754Q1602 894 1587 993T1538 1158T1453 1264T1327 1324T1158 1350T942 1356Q822 1356 727 1350T558 1324T432 1265T347 1159T299 993T283 754Q283 614 298 515T347 350T432 244T557 184T726 158T942 152Q1062 152 1158 158T1327 184T1452 243T1538 349T1586 515T1602 754ZM1464 887Q1464 799 1439 744T1365 658T1242 616T1073 604H905V520H1016V299H528V520H594V997H528V1219H1073Q1171 1219 1244 1206T1366 1156T1439 1055T1464 887ZM1126 887Q1126 927 1125 950T1116 983T1093 996T1051 999H905V772H1034Q1066 772 1084 774T1112 788T1123 823T1126 887Z"/><glyph unicode="™" horiz-adv-x="2494" d="M2417 594H1950V782H2058V1296Q2056 1282 2050 1259T2035 1211T2019 1161T2005 1122L1892 809H1655L1536 1133Q1530 1149 1523 1172T1508 1218T1495 1263T1487 1296V782H1595V594H1178V793H1286V1309H1178V1507H1667L1772 1188Q1784 1151 1790 1125T1802 1067Q1807 1096 1815 1124T1835 1186L1935 1507H2417V1309H2308V793H2417V594ZM1108 1106H856V1329H729V793H838V594H348V793H457V1329H330V1106H78V1507H1108V1106Z"/><glyph unicode="Ω" horiz-adv-x="1664" d="M832 1376Q644 1376 510 1234T376 836Q376 592 464 432T724 180V0H88V196H536Q416 240 304 406T192 848Q192 1112 358 1330T832 1548Q1140 1548 1306 1338T1472 848Q1472 572 1360 406T1128 196H1576V0H940V180Q1112 272 1200 432T1288 836Q1288 1044 1162 1210T832 1376Z"/><glyph unicode="∂" horiz-adv-x="1280" d="M476 -32Q276 -32 166 80T56 360Q56 580 214 750T604 920Q700 920 802 886T964 816Q976 900 976 984Q976 1172 908 1278T720 1384Q592 1384 518 1356T368 1280L324 1444Q400 1488 492 1518T720 1548Q956 1548 1064 1394T1172 968Q1172 552 968 260T476 -32ZM488 128Q660 128 774 268T944 684Q912 716 824 748T648 780Q456 780 360 654T264 372Q264 264 318 196T488 128Z"/><glyph unicode="∆" horiz-adv-x="1536" d="M76 0L652 1536H884L1456 0H76ZM352 148H1164L752 1256L352 148Z"/><glyph unicode="∏" horiz-adv-x="1536" d="M332 0V1348H80V1524H1456V1348H1212V0H1004V1356H540V0H332Z"/><glyph unicode="∑" horiz-adv-x="1152" d="M1084 1524V1344H332L796 784L304 188H1080V0H40V172L560 788L68 1380V1524H1084Z"/><glyph unicode="−" horiz-adv-x="1536" d="M200 692V888H1336V692H200Z"/><glyph unicode="∕" horiz-adv-x="870" d="M870 1444L317 -66L0 49L553 1559L870 1444Z"/><glyph unicode="∙" horiz-adv-x="797" d="M641 524H156V913H641V524Z"/><glyph unicode="√" horiz-adv-x="1561" d="M1481 1419L858 -8H449L201 551H55V809L446 811L662 307L1169 1536L1481 1419Z"/><glyph unicode="∞" horiz-adv-x="1536" d="M1072 396Q924 396 840 480Q800 524 768 588Q732 536 688 496Q580 396 440 396Q284 396 190 508T96 808Q96 984 208 1100T468 1216T704 1132Q748 1096 780 1028Q816 1088 860 1128Q956 1216 1100 1216Q1248 1216 1346 1112T1444 820Q1444 640 1340 518T1072 396ZM612 984Q556 1048 472 1048Q376 1048 316 982T256 792Q256 668 302 610T448 552Q540 552 608 624Q664 684 700 808Q664 932 612 984ZM920 608Q984 556 1072 556Q1156 556 1218 626T1280 816Q1280 916 1234 988T1080 1060Q972 1060 920 968Q880 896 848 804Q860 652 920 608Z"/><glyph unicode="∫" horiz-adv-x="1152" d="M-8 -392L56 -260Q80 -268 104 -274T164 -280Q212 -280 242 -246T288 -112L516 1224Q544 1384 636 1464T880 1544Q972 1544 1042 1522T1152 1476L1088 1304Q1044 1332 988 1356T868 1380Q776 1380 730 1322T672 1188L448 -224Q428 -332 350 -382T176 -432Q116 -432 66 -420T-8 -392Z"/><glyph unicode="≈" horiz-adv-x="1536" d="M236 400Q228 444 228 480Q228 580 288 652T476 724Q576 724 650 696T788 642T912 598T1020 580Q1096 580 1128 610T1160 684Q1160 700 1156 716H1300Q1308 672 1308 636Q1308 536 1248 464T1060 392Q960 392 886 418T748 470T624 512T516 528Q440 528 408 500T376 432Q376 416 380 400H236ZM236 860Q228 904 228 940Q228 1040 288 1112T476 1184Q576 1184 650 1156T788 1102T912 1058T1020 1040Q1096 1040 1128 1070T1160 1144Q1160 1160 1156 1176H1300Q1308 1132 1308 1096Q1308 996 1248 924T1060 852Q960 852 886 878T748 930T624 972T516 988Q440 988 408 960T376 892Q376 876 380 860H236Z"/><glyph unicode="≠" horiz-adv-x="1536" d="M212 976V1176H900L996 1356H1168L1072 1176H1328V976H964L768 604H1328V404H660L548 188H372L488 404H212V604H592L792 976H212Z"/><glyph unicode="≤" horiz-adv-x="1536" d="M1348 236L208 708V872L1348 1344V1128L448 792L1348 452V236ZM212 24V216H1348V24H212Z"/><glyph unicode="≥" horiz-adv-x="1536" d="M212 236V452L1112 792L212 1128V1344L1352 872V708L212 236ZM212 24V216H1348V24H212Z"/><glyph unicode="◊" horiz-adv-x="1152" d="M472 -48L68 756L472 1560H656L1084 756L656 -48H472ZM556 152L876 768L572 1356L252 740L556 152Z"/><glyph unicode="" horiz-adv-x="1569" d="M1499 0H1128V184Q1128 281 1116 344T1073 444T993 498T866 520V315H715V520Q637 518 586 504T505 454T462 354T449 188V0H70V135H291V197Q291 333 321 421T407 561T541 637T715 666V819H203V1217H354V954H715V1092H600V1485H981V1092H866V954H1214V1217H1366V819H866V666Q961 661 1038 640T1171 567T1256 427T1286 201V135H1499V0Z"/><glyph unicode="ﬀ" horiz-adv-x="1595" d="M1548 1260Q1467 1240 1422 1224T1354 1189T1326 1142T1321 1071V993H1534V690H1321V295H1534V0H920V694H621V295H754V0H76V295H219V690H76V993H219V1092Q219 1157 226 1208T254 1299T313 1370T411 1428T559 1477T766 1524L848 1219Q767 1199 722 1183T654 1148T626 1101T621 1030V993H920V1133Q920 1198 927 1248T955 1339T1014 1411T1112 1468T1260 1518T1466 1565L1548 1260Z"/><glyph unicode="ﬁ" horiz-adv-x="1483" d="M1436 0H922V694H623V295H756V0H76V295H221V690H76V993H221V1122Q221 1187 232 1237T274 1326T357 1396T490 1454T684 1508T950 1565L1020 1257Q925 1234 859 1217T748 1185T679 1158T642 1131T626 1100T623 1061V993H1323V295H1436V0Z"/><glyph unicode="ﬂ" horiz-adv-x="1481" d="M807 1239Q740 1223 703 1208T647 1172T625 1123T621 1051V993H772V690H621V295H754V0H76V295H219V690H76V993H219V1112Q219 1177 226 1228T254 1320T309 1393T401 1451T536 1500T725 1544L807 1239ZM1434 0H920V1260H858V1559H1321V295H1434V0Z"/><glyph unicode="ﬃ" horiz-adv-x="2181" d="M2134 0H1620V694H1321V295H1454V0H920V694H621V295H754V0H76V295H219V690H76V993H219V1092Q219 1157 226 1208T254 1299T313 1370T411 1428T559 1477T766 1524L848 1219Q767 1199 722 1183T654 1148T626 1101T621 1030V993H920V1122Q920 1187 931 1237T973 1326T1055 1396T1188 1454T1382 1508T1649 1565L1718 1257Q1623 1234 1557 1217T1446 1185T1377 1158T1340 1131T1324 1100T1321 1061V993H2021V295H2134V0Z"/><glyph unicode="ﬄ" horiz-adv-x="2181" d="M1507 1260Q1440 1244 1403 1229T1347 1193T1325 1143T1321 1071V993H1473V690H1321V295H1454V0H920V694H621V295H754V0H76V295H219V690H76V993H219V1092Q219 1157 226 1208T254 1299T313 1370T411 1428T559 1477T766 1524L848 1219Q767 1199 722 1183T654 1148T626 1101T621 1030V993H920V1133Q920 1198 927 1249T954 1341T1009 1414T1101 1472T1236 1521T1425 1565L1507 1260ZM2134 0H1620V1251H1559V1559H2021V295H2134V0Z"/></font>
</defs>
</svg>
