<?xml version="1.0" encoding="UTF-8"?><svg xmlns="http://www.w3.org/2000/svg" width="100%" height="100%"><defs><font id="web" horiz-adv-x="1353"><!--



NOTICE: This font software is the valuable property 
of Webtype LLC, The Font Bureau, Webtype and/or its 
suppliers and its use by you is covered under the terms 
of the Web Font license agreement between you and Webtype 
LLC. You may ONLY use this font software with the licensed 
web site. Except as specifically permitted by the license, 
you may not copy this font software. If you have any 
questions, please contact Webtype.com. 

For more information, please visit http://www.webtype.com/store/license/?id=23

Licensed to: houstonchronicle.com

Serial number: SH-946
--><font-face font-family="" units-per-em="2048" panose-1="2 0 8 3 5 0 0 2 0 4" ascent="2241" descent="-473" alphabetic="0"/><missing-glyph horiz-adv-x="631"/><glyph unicode=" " horiz-adv-x="631"/><glyph unicode="!" horiz-adv-x="702" d="M551 1499L479 449H227L156 1499H551ZM547 0H156V328H547V0Z"/><glyph unicode="&quot;" horiz-adv-x="1069" d="M961 1499L899 956H651L588 1499H961ZM481 1499L420 956H172L109 1499H481Z"/><glyph unicode="#" horiz-adv-x="1303" d="M1225 379H920L819 -199L586 -162L682 379H481L381 -199L147 -162L244 379H78V598H281L319 817H78V1036H358L463 1628L696 1591L598 1036H797L901 1628L1135 1591L1036 1036H1225V817H997L958 598H1225V379ZM758 817H559L522 598H719L758 817Z"/><glyph unicode="$" horiz-adv-x="1450" d="M1333 440Q1333 326 1309 247T1228 115T1081 35T856 -6V-236H600V-8Q510 -5 435 2T302 19T202 37T139 51V453H440V254Q458 249 486 245T549 236T626 230T711 227Q804 227 863 233T956 261T1003 322T1016 428Q1016 485 1006 520T965 576T877 607T727 627Q551 642 437 667T255 741T162 874T135 1090Q135 1196 161 1273T243 1401T388 1480T600 1518V1708H860V1518Q924 1514 984 1507T1095 1491T1187 1473T1251 1454V1081H950V1262Q939 1266 914 1270T856 1277T786 1283T715 1286Q640 1286 589 1280T507 1253T463 1196T449 1098Q449 1041 461 1005T508 947T601 914T756 895Q866 886 952 875T1102 844T1210 793T1281 715T1321 600T1333 440Z"/><glyph unicode="%" horiz-adv-x="2353" d="M2288 471Q2288 320 2258 224T2171 72T2029 -4T1837 -25Q1729 -25 1647 -5T1508 69T1422 219T1393 467Q1393 617 1422 713T1509 864T1649 940T1841 961Q1949 961 2032 941T2173 867T2259 717T2288 471ZM961 1032Q961 881 932 785T845 633T704 558T512 537Q404 537 321 557T182 631T97 781T68 1028Q68 1179 97 1275T184 1427T324 1503T516 1524Q624 1524 707 1504T847 1430T932 1279T961 1032ZM1569 1454L1020 -49L782 39L1331 1540L1569 1454ZM2013 422V510Q2013 585 2004 633T1974 708T1920 747T1837 758Q1789 758 1756 748T1703 711T1674 637T1665 514V426Q1665 351 1674 303T1705 226T1759 186T1841 174Q1890 174 1923 185T1976 223T2004 299T2013 422ZM688 985V1071Q688 1146 679 1194T648 1269T594 1308T512 1319Q464 1319 431 1309T378 1272T349 1198T340 1075V989Q340 915 349 866T380 789T434 749T516 737Q564 737 597 748T650 786T679 862T688 985Z"/><glyph unicode="&amp;" horiz-adv-x="1698" d="M1679 0H1278L1090 184Q1062 131 1032 93T963 29T870 -8T743 -20Q656 -20 573 -12T417 13T283 58T178 125Q122 174 100 254T78 457Q78 544 98 607T162 714T272 788T432 838Q363 919 327 992T291 1151Q291 1251 320 1321T414 1437T578 1503T821 1524Q908 1524 984 1519T1122 1505T1229 1488T1300 1473V1081H999V1276Q991 1279 969 1282T919 1289T859 1294T799 1296Q733 1296 692 1287T628 1260T596 1214T588 1149Q588 1120 599 1090T638 1020T716 929T842 805L1030 625L1141 891H1622V657H1307L1212 449L1427 244H1679V0ZM905 362L627 635L565 696Q500 683 462 664T403 616T376 548T369 455Q369 423 371 399T380 357T395 324T418 295Q437 274 473 259T554 235T645 220T731 215Q759 215 781 221T824 244T863 289T905 362Z"/><glyph unicode="'" horiz-adv-x="590" d="M481 1499L420 956H172L109 1499H481Z"/><glyph unicode="(" horiz-adv-x="860" d="M784 1571L782 1327Q690 1327 624 1318T510 1281T434 1205T388 1077T366 885T360 616Q360 461 366 349T388 159T433 33T510 -41T624 -77T782 -86V-326Q643 -325 538 -310T355 -257T226 -152T143 19T99 271T86 616Q86 815 99 962T143 1216T226 1390T355 1498T539 1554T784 1571Z"/><glyph unicode=")" horiz-adv-x="860" d="M772 616Q772 417 759 271T715 20T633 -151T504 -256T321 -310T76 -326V-86Q167 -86 234 -77T348 -42T425 33T471 159T494 349T500 616Q500 772 494 885T472 1077T426 1205T349 1281T234 1317T76 1327V1571Q215 1570 321 1554T504 1498T632 1390T715 1216T759 963T772 616Z"/><glyph unicode="*" horiz-adv-x="1112" d="M1034 883L928 698L645 881L659 547H446L467 881L184 696L78 881L377 1036L80 1188L186 1374L467 1190L449 1524H662L645 1188L928 1372L1034 1186L735 1034L1034 883Z"/><glyph unicode="+" horiz-adv-x="1049" d="M963 410H643V86H406V410H86V629H406V938H643V629H963V410Z"/><glyph unicode="," horiz-adv-x="702" d="M573 209L285 -293L127 -213L240 403L573 209Z"/><glyph unicode="-" horiz-adv-x="782" d="M696 463H86V696H696V463Z"/><glyph unicode="." horiz-adv-x="702" d="M547 0H156V328H547V0Z"/><glyph unicode="/" horiz-adv-x="827" d="M842 1540L207 -201L-33 -113L602 1628L842 1540Z"/><glyph unicode="0" horiz-adv-x="1479" d="M1393 754Q1393 529 1356 379T1239 140T1035 13T737 -25Q621 -25 528 -10T363 42T238 137T152 282T102 484T86 750Q86 975 123 1124T240 1362T444 1487T741 1524Q915 1524 1038 1488T1240 1364T1356 1128T1393 754ZM1071 655V844Q1071 971 1054 1054T997 1186T893 1256T737 1276Q645 1276 582 1257T481 1189T425 1058T408 848V659Q408 533 425 449T482 313T585 241T741 219Q833 219 896 239T998 310T1054 444T1071 655Z"/><glyph unicode="1" horiz-adv-x="918" d="M842 0H96V244H328V1251H76V1499H645V244H842V0Z"/><glyph unicode="2" horiz-adv-x="1368" d="M1253 0H78V301Q161 359 230 407T360 498T476 579T584 657Q666 718 723 762T818 841T877 904T909 962T921 1024T924 1102Q924 1153 913 1187T869 1243T780 1273T633 1282Q606 1282 574 1281T509 1277T449 1270T403 1262V1081H106V1462Q146 1474 210 1485T347 1504T497 1518T637 1524Q814 1524 929 1504T1111 1436T1204 1308T1231 1106Q1231 1041 1226 992T1203 899T1153 813T1066 721T931 612T737 471Q692 439 650 409T565 349T478 288T385 225H956V453H1253V0Z"/><glyph unicode="3" horiz-adv-x="1366" d="M1274 481Q1274 403 1266 346T1240 245T1194 171T1126 113Q1073 78 992 54T794 11T522 -20T164 -47L141 211Q316 223 445 232T665 253T814 280T905 317Q945 343 957 384T969 481Q969 537 956 576T905 641Q872 663 825 677T726 700T625 713T535 721V926L897 1278H369V1081H72V1499H1194V1251L829 895Q860 890 899 883T977 865T1055 838T1126 803Q1169 775 1197 743T1243 671T1267 584T1274 481Z"/><glyph unicode="4" horiz-adv-x="1419" d="M1341 0H649V244H856V442H59V723L729 1593L963 1411L365 664H856V967H1161V664H1341V442H1161V244H1341V0Z"/><glyph unicode="5" horiz-adv-x="1370" d="M1280 481Q1280 400 1272 342T1247 242T1201 169T1133 113Q1079 78 998 54T799 11T526 -20T168 -47L145 211Q320 223 449 232T670 253T820 280T911 317Q951 343 963 382T975 477Q975 534 963 572T911 637Q878 659 823 675T675 703T445 724T109 745L131 1499H1194V1081H897V1274H397L387 956Q520 949 634 940T843 917T1010 880T1133 827Q1174 800 1202 767T1247 692T1272 598T1280 481Z"/><glyph unicode="6" horiz-adv-x="1395" d="M1323 459Q1323 345 1300 256T1210 104T1021 10T700 -23Q563 -23 465 -7T298 43T189 131T124 260T94 433T86 655V791Q86 892 93 973T118 1118T167 1232T246 1321Q291 1358 369 1388T557 1445T810 1495T1126 1544L1171 1284Q997 1258 873 1238T664 1198T528 1159T449 1114Q427 1095 416 1071T399 1016T392 948T391 864V848Q418 855 468 863T579 879T701 892T815 897Q922 897 1001 891T1136 868T1229 821T1286 741T1315 623T1323 459ZM1020 453Q1020 518 1013 560T981 626T910 660T788 670Q730 670 674 666T566 656T470 643T391 629V524Q391 432 405 372T454 275T550 224T705 209Q797 209 857 220T954 259T1005 334T1020 453Z"/><glyph unicode="7" horiz-adv-x="1364" d="M1294 1233L649 -59L365 78L985 1274H375V1081H74V1499H1294V1233Z"/><glyph unicode="8" horiz-adv-x="1479" d="M1397 389Q1397 275 1360 196T1243 69T1037 -1T731 -23Q552 -23 428 -2T227 68T115 196T80 389Q80 447 84 492T101 573T136 637T194 690T279 740T397 791Q318 826 269 860T193 935T157 1026T147 1141Q147 1252 180 1326T284 1444T466 1506T733 1524Q890 1524 1005 1506T1194 1444T1305 1326T1341 1141Q1341 1074 1335 1027T1303 942T1229 871T1092 799Q1188 760 1247 724T1340 643T1385 538T1397 389ZM1047 1141Q1047 1186 1026 1213T964 1256T865 1276T731 1282Q658 1282 606 1277T521 1256T473 1214T457 1141Q457 1088 469 1058T514 1007T608 966T766 913Q789 905 810 898T852 885Q900 905 933 921T988 952T1021 984T1039 1023T1046 1073T1047 1141ZM1083 389Q1083 434 1078 465T1059 520T1017 561T946 597T838 636T686 686Q669 692 654 696T625 707Q567 683 527 664T459 625T417 586T395 538T385 474T383 389Q383 338 404 304T468 251T576 223T731 215Q822 215 888 223T998 250T1062 304T1083 389Z"/><glyph unicode="9" horiz-adv-x="1395" d="M1309 711Q1309 610 1302 530T1278 385T1230 271T1151 182Q1106 144 1028 114T840 58T586 7T268 -43L223 213Q398 239 522 259T732 298T868 337T948 383Q969 403 980 428T997 484T1003 553T1004 637V653Q977 646 927 638T816 622T694 609T580 604Q473 604 394 610T259 634T166 682T109 761T80 879T72 1042Q72 1156 95 1245T185 1397T374 1491T694 1524Q831 1524 929 1508T1096 1458T1206 1370T1271 1241T1301 1068T1309 846V711ZM1004 872V977Q1004 1069 990 1129T941 1224T845 1274T690 1288Q598 1288 537 1278T440 1240T390 1167T375 1049Q375 983 382 942T414 876T484 843T606 834Q664 834 721 837T829 846T925 858T1004 872Z"/><glyph unicode=":" horiz-adv-x="702" d="M547 651H156V979H547V651ZM547 0H156V328H547V0Z"/><glyph unicode=";" horiz-adv-x="702" d="M547 651H156V979H547V651ZM561 209L272 -293L115 -213L227 403L561 209Z"/><glyph unicode="&lt;" horiz-adv-x="928" d="M778 164L621 8L88 541L621 1075L778 918L391 541L778 164Z"/><glyph unicode="=" horiz-adv-x="983" d="M879 614H104V819H879V614ZM879 229H104V434H879V229Z"/><glyph unicode="&gt;" horiz-adv-x="928" d="M840 541L307 8L150 164L535 541L150 918L307 1075L840 541Z"/><glyph unicode="?" horiz-adv-x="1311" d="M1251 1135Q1251 1076 1244 1031T1216 946T1160 871T1067 797T929 716T737 618V449H444V723Q556 779 636 819T770 889T857 944T907 995T929 1053T934 1130Q934 1173 920 1202T871 1250T778 1276T631 1284Q549 1284 483 1276T379 1257V997H78V1458Q116 1470 172 1481T300 1502T454 1518T631 1524Q813 1524 932 1505T1123 1440T1222 1321T1251 1135ZM782 0H391V328H782V0Z"/><glyph unicode="@" horiz-adv-x="2167" d="M2079 539Q2079 436 2068 356T2025 213T1934 108T1780 37T1549 -3T1225 -16L1196 109Q1164 87 1121 65T1028 24T927 -6T827 -18Q732 -18 663 4T556 85T512 248T539 516Q570 668 604 762T683 909T784 980T915 999Q962 999 1020 989T1136 962T1248 925T1337 887L1391 977H1649L1485 170Q1614 170 1693 188T1816 250T1875 364T1890 541Q1890 681 1877 786T1829 967T1737 1094T1589 1173T1375 1215T1083 1227Q916 1227 792 1215T578 1172T430 1089T337 955T290 762T276 500Q276 350 289 238T337 45T430 -88T578 -172T792 -215T1083 -227H1343V-397H1083Q875 -397 721 -377T455 -314T273 -201T160 -32T102 199T86 498Q86 665 102 796T159 1028T272 1197T455 1311T720 1375T1083 1395Q1290 1395 1444 1376T1710 1313T1892 1203T2005 1041T2063 821T2079 539ZM1288 694Q1264 707 1229 719T1155 742T1077 758T1006 764Q977 764 955 756T914 721T879 645T844 512Q825 418 820 359T824 267T862 221T936 209Q973 209 1013 218T1091 242T1162 274T1217 309L1288 694Z"/><glyph unicode="A" horiz-adv-x="1808" d="M1749 0H1014V231H1253L1163 459H588L498 231H725V0H59V244H209L719 1509H1081L1593 244H1749V0ZM1090 655L1024 827Q1018 842 1006 874T978 947T947 1030T917 1112T892 1179T877 1219Q873 1208 863 1179T838 1111T807 1029T775 947T748 876T731 831L664 655H1090Z"/><glyph unicode="B" horiz-adv-x="1583" d="M1487 420Q1487 305 1458 225T1365 95T1205 23T971 0H76V244H233V1251H76V1499H930Q1056 1499 1152 1484T1314 1425T1412 1307T1446 1114Q1446 1036 1431 979T1388 882T1318 818T1223 780Q1277 770 1325 746T1409 678T1466 571T1487 420ZM1169 444Q1169 505 1154 547T1112 615T1049 652T971 664H547V227H971Q1013 227 1049 238T1112 274T1154 341T1169 444ZM1128 1065Q1128 1126 1113 1165T1071 1227T1008 1257T930 1266H547V862H930Q972 862 1008 871T1071 903T1113 965T1128 1065Z"/><glyph unicode="C" horiz-adv-x="1501" d="M1380 47Q1353 39 1296 28T1160 6T987 -12T791 -20Q679 -20 583 -7T409 40T270 130T169 272T107 476T86 750Q86 906 108 1024T171 1227T274 1370T414 1460T588 1508T795 1522Q896 1522 990 1515T1161 1497T1296 1474T1380 1452V997H1079V1245Q1061 1248 1029 1252T957 1260T874 1267T791 1270Q687 1270 616 1244T502 1161T439 1018T420 809V698Q420 579 439 491T503 344T618 256T795 227Q838 227 881 229T962 235T1030 243T1079 250V537H1380V47Z"/><glyph unicode="D" horiz-adv-x="1616" d="M1530 750Q1530 588 1510 470T1450 268T1351 132T1213 50T1037 9T823 -2H76V242H233V1251H76V1499H823Q939 1499 1036 1489T1213 1449T1351 1367T1450 1231T1510 1030T1530 750ZM1198 700V799Q1198 929 1178 1018T1114 1163T997 1243T821 1268H551V225H821Q925 225 997 251T1113 333T1178 480T1198 700Z"/><glyph unicode="E" horiz-adv-x="1524" d="M1405 0H76V244H233V1251H76V1499H1405V997H1104V1264H551V883H973V655H551V231H1104V537H1405V0Z"/><glyph unicode="F" horiz-adv-x="1464" d="M1405 997H1104V1257H551V858H956V625H551V244H760V0H76V244H233V1251H76V1499H1405V997Z"/><glyph unicode="G" horiz-adv-x="1546" d="M1505 516H1374V47Q1348 39 1294 28T1165 6T994 -12T791 -20Q679 -20 583 -6T409 43T270 134T169 277T107 479T86 750Q86 980 134 1129T274 1366T497 1487T795 1522Q896 1522 990 1515T1161 1497T1296 1474T1380 1452V997H1079V1245Q1061 1248 1029 1252T957 1260T874 1267T791 1270Q686 1270 615 1243T501 1160T439 1016T420 809V698Q420 580 437 491T499 343T617 253T805 223Q856 223 901 225T983 231T1048 239T1092 248V516H881V745H1505V516Z"/><glyph unicode="H" horiz-adv-x="1755" d="M1679 0H1020V244H1204V666H551V244H735V0H76V244H233V1251H76V1499H735V1251H551V893H1204V1251H1020V1499H1679V1251H1522V244H1679V0Z"/><glyph unicode="I" horiz-adv-x="838" d="M762 1251H578V244H762V0H76V244H260V1251H76V1499H762V1251Z"/><glyph unicode="J" horiz-adv-x="1378" d="M1303 1251H1155V559Q1155 379 1122 267T1020 93T844 10T586 -12Q514 -12 435 -5T282 13T150 36T59 57V537H360V258Q372 255 399 251T460 243T526 236T586 233Q664 233 713 249T789 305T827 408T838 567V1251H627V1499H1303V1251Z"/><glyph unicode="K" horiz-adv-x="1686" d="M1626 0H971V231H1116L774 659L547 446V231H682V0H76V244H233V1251H76V1499H686V1264H547V717Q550 722 566 739T607 783T663 840T726 904T791 967T850 1022L1110 1264H944V1499H1602V1251H1440L1008 844L1483 244H1626V0Z"/><glyph unicode="L" horiz-adv-x="1464" d="M1405 0H76V244H233V1251H76V1499H770V1251H551V238H1104V537H1405V0Z"/><glyph unicode="M" horiz-adv-x="2046" d="M1970 0H1327V244H1499V612Q1499 646 1499 696T1500 805T1501 923T1502 1038T1503 1134T1505 1198Q1499 1178 1484 1137T1448 1042T1404 927T1357 808T1315 698T1282 614L1151 266H850L717 614Q705 646 686 696T643 804T597 924T553 1040T517 1136T496 1198Q496 1176 497 1133T498 1036T499 920T500 802T501 694T502 612V244H674V0H76V244H233V1251H76V1499H690L885 1020Q894 998 908 965T937 893T968 815T997 738T1019 672T1032 627Q1036 643 1046 671T1069 736T1098 812T1129 890T1157 961T1180 1018L1368 1499H1970V1251H1812V244H1970V0Z"/><glyph unicode="N" horiz-adv-x="1755" d="M1679 1251H1528V0H1223L502 1124Q503 1111 504 1069T507 971T508 850T509 727T510 622T510 557V244H694V0H76V244H233V1251H76V1499H612L1262 489Q1260 503 1258 538T1255 621T1253 722T1252 826T1251 920T1251 989V1251H1075V1499H1679V1251Z"/><glyph unicode="O" horiz-adv-x="1634" d="M1548 754Q1548 591 1524 471T1454 264T1344 121T1197 33T1020 -12T815 -25Q707 -25 612 -13T435 31T290 118T180 260T110 467T86 750Q86 912 110 1032T180 1239T291 1380T437 1467T615 1511T819 1524Q927 1524 1023 1512T1200 1469T1345 1383T1455 1243T1524 1037T1548 754ZM1217 694V805Q1217 940 1193 1030T1118 1175T993 1253T815 1276Q713 1276 639 1254T516 1178T444 1034T420 809V698Q420 563 444 472T517 324T642 243T819 219Q921 219 996 242T1120 321T1193 468T1217 694Z"/><glyph unicode="P" horiz-adv-x="1532" d="M1466 1018Q1466 914 1450 838T1402 707T1325 618T1221 565T1092 538T940 530H549V238H762V0H76V244H233V1251H76V1499H944Q1025 1499 1095 1492T1223 1466T1326 1414T1403 1327T1450 1197T1466 1018ZM1149 1014Q1149 1089 1133 1137T1089 1214T1022 1254T940 1266H549V762H944Q988 762 1025 773T1090 812T1133 889T1149 1014Z"/><glyph unicode="Q" horiz-adv-x="1634" d="M1548 754Q1548 619 1532 516T1484 337T1409 206T1309 115L1477 -137L1194 -328L971 -2Q897 -14 815 -14Q707 -14 612 -3T435 39T290 124T180 263T110 468T86 750Q86 912 110 1032T180 1239T291 1380T437 1467T615 1511T819 1524Q927 1524 1023 1512T1200 1469T1345 1383T1455 1243T1524 1037T1548 754ZM1217 694V805Q1217 940 1193 1030T1118 1175T993 1253T815 1276Q713 1276 639 1254T516 1178T444 1034T420 809V698Q420 563 444 471T517 322T642 240T819 215Q921 215 996 239T1120 319T1193 467T1217 694Z"/><glyph unicode="R" horiz-adv-x="1669" d="M1610 0H985V231H1090L829 582H547V231H696V0H76V244H233V1251H76V1499H944Q1065 1499 1162 1483T1326 1417T1430 1278T1466 1040Q1466 947 1450 878T1399 757T1307 673T1171 621L1448 244H1610V0ZM1149 1032Q1149 1104 1133 1150T1090 1221T1024 1256T942 1266H547V795H944Q988 795 1025 804T1090 840T1133 913T1149 1032Z"/><glyph unicode="S" horiz-adv-x="1479" d="M1403 426Q1403 295 1368 210T1253 75T1043 4T721 -16Q604 -16 503 -9T322 7T187 26T106 41V487H408V229Q427 224 462 220T540 212T632 206T725 203Q830 203 897 212T1002 246T1056 311T1071 416Q1071 473 1057 507T1003 561T895 593T717 618Q596 632 504 648T343 686T228 742T154 824T114 943T102 1106Q102 1224 139 1303T253 1430T449 1498T733 1518Q792 1518 854 1515T977 1506T1094 1493T1197 1478T1278 1463T1329 1450V1047H1028V1272Q1016 1274 985 1278T911 1285T821 1291T729 1294Q644 1294 587 1287T495 1259T445 1202T430 1110Q430 1054 444 1019T496 960T602 923T776 897Q890 884 981 871T1141 837T1260 785T1342 706T1388 590T1403 426Z"/><glyph unicode="T" horiz-adv-x="1591" d="M1532 997H1251V1276H954V242H1145V0H446V244H637V1278H342V997H59V1499H1532V997Z"/><glyph unicode="U" horiz-adv-x="1751" d="M1675 1251H1528V532Q1528 366 1490 259T1373 90T1171 4T881 -20Q713 -20 589 2T384 86T263 253T223 528V1251H76V1499H745V1251H541V537Q541 445 560 388T620 297T726 252T885 240Q978 240 1042 250T1147 292T1206 380T1225 532V1251H1030V1499H1675V1251Z"/><glyph unicode="V" horiz-adv-x="1808" d="M1749 1251H1597L1087 -10H727L213 1251H59V1499H793V1264H557L778 698Q793 659 815 601T858 483T899 369T930 283Q938 304 949 335T975 404T1004 482T1033 562T1061 636T1085 696L1309 1264H1081V1499H1749V1251Z"/><glyph unicode="W" horiz-adv-x="2245" d="M2185 1251H2044L1737 -10H1374L1237 475Q1232 493 1222 527T1200 602T1175 688T1152 771T1133 838T1124 877Q1122 867 1115 839T1098 772T1074 689T1050 604T1028 528T1012 475L870 -10H526L209 1251H59V1499H766V1264H543L655 766Q664 729 677 670T704 546T729 422T745 326Q749 349 757 384T775 460T798 545T822 629T844 705T862 764L1016 1274H1294L1452 760Q1459 736 1469 701T1492 624T1515 539T1537 455T1556 381T1567 326Q1570 347 1576 381T1589 455T1606 538T1623 622T1639 698T1653 758L1769 1264H1544V1499H2185V1251Z"/><glyph unicode="X" horiz-adv-x="1710" d="M1651 0H936V225H1120L809 629L498 225H678V0H59V244H195L612 762L219 1251H78V1499H764V1270H592L887 893L1184 1274L1008 1268V1499H1630V1251H1483L1085 758L1491 244H1651V0Z"/><glyph unicode="Y" horiz-adv-x="1729" d="M1665 1251H1520L1020 549V244H1221V0H502V244H702V543L209 1251H63V1499H745V1264H557L639 1145Q652 1125 673 1095T718 1028T769 953T819 879T862 814T893 768Q903 783 922 812T965 877T1016 952T1068 1029T1114 1096T1149 1145L1235 1264H1034V1499H1665V1251Z"/><glyph unicode="Z" horiz-adv-x="1448" d="M1372 0H78V256L561 801Q604 849 653 903T752 1009T848 1110T930 1196T990 1257T1018 1284H399V997H96V1499H1358V1237L924 758Q883 713 833 657T730 543T627 428T534 326T463 249T424 211H1069V537H1372V0Z"/><glyph unicode="[" horiz-adv-x="768" d="M692 -326H154V1571H692V1327H422V-86H692V-326Z"/><glyph unicode="\" horiz-adv-x="827" d="M868 -111L629 -201L-4 1540L236 1630L868 -111Z"/><glyph unicode="]" horiz-adv-x="768" d="M614 -326H76V-86H358V1327H76V1571H614V-326Z"/><glyph unicode="^" horiz-adv-x="1100" d="M952 1251L866 1098L551 1245L233 1096L147 1247L551 1518L952 1251Z"/><glyph unicode="_" horiz-adv-x="1122" d="M1192 -334H-70V-104H1192V-334Z"/><glyph unicode="`" horiz-adv-x="1024" d="M745 1219L602 1075L178 1421L389 1632L745 1219Z"/><glyph unicode="a" horiz-adv-x="1237" d="M1192 0H807L776 100Q748 86 704 67T602 29T480 -1T344 -14Q289 -14 240 2T153 56T94 154T72 301Q72 336 75 372T89 440T116 498T160 539Q197 560 252 572T383 591T553 600T766 602V686Q766 721 760 745T736 785T687 808T606 815Q562 815 514 811T430 801V684H141V967Q173 974 226 981T342 995T474 1006T608 1010Q738 1010 826 992T968 934T1045 834T1069 686V231H1192V0ZM766 246V442Q632 442 548 437T420 416Q392 406 384 379T375 307Q375 238 403 214T492 190Q523 190 562 196T641 211T713 229T766 246Z"/><glyph unicode="b" horiz-adv-x="1323" d="M1237 494Q1237 340 1213 241T1145 85T1038 6T897 -16Q831 -16 768 -7T650 16T550 45T477 72L446 0H55V231H184V1321H53V1559H487V887Q512 899 559 918T664 955T786 986T907 999Q985 999 1046 978T1149 900T1214 746T1237 494ZM930 489Q930 574 921 628T893 712T844 753T772 764Q731 764 691 758T614 743T545 724T487 707V250Q506 245 536 239T605 225T686 214T772 209Q813 209 842 221T891 265T920 351T930 489Z"/><glyph unicode="c" horiz-adv-x="1219" d="M1092 31Q1055 22 1011 14T911 -2T788 -13T639 -18Q494 -18 389 5T215 86T113 243T80 496Q80 649 113 749T216 908T392 990T643 1014Q725 1014 790 1010T908 997T1006 979T1092 958V614H803V786Q771 794 732 798T639 803Q568 803 520 791T443 745T400 652T387 500Q387 407 400 347T444 251T523 202T643 188Q670 188 691 189T731 192T767 197T803 205V381H1092V31Z"/><glyph unicode="d" horiz-adv-x="1323" d="M1272 0H877L846 98Q821 87 774 67T667 28T543 -6T416 -20Q338 -20 277 1T174 79T109 234T86 487Q86 641 110 740T178 896T285 976T426 999Q492 999 555 990T673 967T769 939T836 915V1321H678V1559H1139V231H1272V0ZM836 276V733Q817 737 787 744T718 758T637 769T551 774Q510 774 481 762T432 718T403 632T393 494Q393 408 402 355T430 271T479 230T551 219Q591 219 631 225T709 240T778 258T836 276Z"/><glyph unicode="e" horiz-adv-x="1214" d="M1110 446H385Q386 362 402 310T450 228T529 187T641 176Q697 176 736 180T803 193V317H1092V33Q1067 26 1026 17T927 1T797 -12T637 -18Q492 -18 387 5T214 87T113 245T80 496Q80 652 114 752T216 910T382 990T610 1012Q755 1012 851 992T1005 921T1086 782T1110 557V446ZM815 608Q813 672 803 712T769 776T705 807T604 815Q553 815 517 807T455 777T413 714T387 608H815Z"/><glyph unicode="f" horiz-adv-x="829" d="M780 1325Q694 1305 646 1289T573 1251T543 1200T537 1124V977H750V741H537V231H750V0H76V231H233V741H76V977H233V1165Q233 1224 239 1271T265 1355T317 1422T405 1476T536 1522T719 1565L780 1325Z"/><glyph unicode="g" horiz-adv-x="1239" d="M1171 -80Q1171 -149 1162 -200T1121 -289T1025 -351T854 -390T587 -410T201 -416H104V-84H408V-211Q519 -211 596 -208T726 -199T807 -183T852 -158T870 -125T874 -82Q874 -59 870 -41T845 -10T785 11T672 26T492 37T227 45L266 342Q201 358 160 381T93 439T59 526T49 649Q49 751 69 819T147 928T305 986T569 1004Q653 1004 721 999T836 985L903 1128L1159 1024L1063 815Q1067 803 1071 785T1078 745T1083 699T1085 651Q1085 583 1078 532T1049 444T992 382T898 342T758 321T565 315Q554 315 544 315T524 317L512 215Q652 210 755 204T931 185T1051 152T1124 100T1161 25T1171 -80ZM791 649Q791 693 786 729T772 793Q695 805 559 805Q494 805 453 800T388 779T355 731T346 649Q346 595 354 564T387 516T455 494T567 489Q636 489 680 493T748 513T782 561T791 649Z"/><glyph unicode="h" horiz-adv-x="1366" d="M1317 0H774V231H885V651Q885 681 879 702T858 735T817 754T752 760Q720 760 684 755T611 742T543 724T487 705V231H598V0H55V231H184V1321H55V1559H487V887Q518 902 567 921T673 958T790 987T905 999Q1045 999 1116 939T1188 745V231H1317V0Z"/><glyph unicode="i" horiz-adv-x="733" d="M547 1143H193V1470H547V1143ZM686 0H76V231H236V741H76V977H539V231H686V0Z"/><glyph unicode="j" horiz-adv-x="678" d="M539 -4Q539 -66 533 -114T508 -201T456 -269T368 -323T234 -368T47 -408L-12 -166Q78 -147 128 -130T202 -91T231 -37T236 41V741H76V977H539V-4ZM547 1143H193V1470H547V1143Z"/><glyph unicode="k" horiz-adv-x="1333" d="M1286 0H831V176L639 401L487 287V219H623V0H55V231H184V1321H55V1559H487V510Q509 529 542 555T614 610L840 778H725V977H1219V741H1085L860 569Q860 569 872 555T903 518T948 464T999 401L1139 231H1286V0Z"/><glyph unicode="l" horiz-adv-x="739" d="M690 0H55V231H215V1321H55V1559H518V231H690V0Z"/><glyph unicode="m" horiz-adv-x="2048" d="M1999 0H1464V231H1567V651Q1567 681 1562 702T1544 735T1506 754T1444 760Q1411 760 1375 755T1304 741T1239 723T1188 705V231H1288V0H784V231H885V651Q885 681 880 702T862 735T824 754T762 760Q728 760 692 755T622 741T559 723T508 705V231H608V0H76V231H205V741H76V977H467L498 881Q535 899 582 919T684 957T799 987T924 999Q1021 999 1080 966T1163 874Q1213 899 1266 921T1376 961T1489 988T1602 999Q1671 999 1721 985T1805 938T1854 856T1870 733V231H1999V0Z"/><glyph unicode="n" horiz-adv-x="1386" d="M1337 0H795V231H905V651Q905 681 899 702T877 735T835 754T770 760Q737 760 700 755T627 741T560 723T508 705V231H618V0H76V231H205V741H76V977H467L498 881Q528 897 577 917T685 956T807 986T926 999Q1064 999 1136 939T1208 745V231H1337V0Z"/><glyph unicode="o" horiz-adv-x="1268" d="M1186 500Q1186 351 1155 252T1056 92T883 7T631 -18Q485 -18 381 6T210 90T112 248T80 496Q80 645 112 744T211 904T384 989T635 1014Q782 1014 886 990T1057 906T1155 748T1186 500ZM881 496Q881 587 867 646T823 740T746 789T631 803Q565 803 519 790T443 743T401 650T387 500Q387 408 401 348T445 253T522 203T635 188Q702 188 748 202T824 250T867 344T881 496Z"/><glyph unicode="p" horiz-adv-x="1325" d="M1239 494Q1239 340 1215 241T1147 85T1040 6T899 -16Q833 -16 770 -7T652 16T556 44T489 68V-180H639V-410H57V-180H186V741H57V977H449L479 881Q503 893 550 913T656 952T781 985T909 999Q987 999 1048 978T1151 900T1216 746T1239 494ZM932 489Q932 574 923 628T895 712T846 753T774 764Q733 764 692 758T614 743T545 724T489 707V250Q508 245 538 239T606 225T687 214T774 209Q814 209 844 221T893 265T922 351T932 489Z"/><glyph unicode="q" horiz-adv-x="1323" d="M1264 -410H698V-180H836V94Q811 82 765 63T662 26T541 -6T416 -20Q338 -20 277 2T174 81T109 237T86 489Q86 643 110 742T178 898T285 977T426 999Q492 999 555 990T673 966T773 937T846 911L877 977H1264V741H1139V-180H1264V-410ZM836 276V733Q817 737 787 744T718 758T637 769T551 774Q510 774 481 762T432 718T403 632T393 494Q393 408 402 355T430 271T479 230T551 219Q591 219 631 225T709 240T778 258T836 276Z"/><glyph unicode="r" horiz-adv-x="1071" d="M1012 614H715V733Q692 729 663 723T604 710T549 695T508 680V231H666V0H76V231H205V741H76V977H467L498 860Q544 883 602 907T726 953T865 990T1012 1012V614Z"/><glyph unicode="s" horiz-adv-x="1157" d="M1081 299Q1081 201 1053 140T964 44T806 -3T571 -16Q498 -16 430 -12T302 -2T190 12T100 29V317H383V178Q431 170 478 167T571 164Q644 164 686 168T750 186T778 221T784 279Q784 309 776 326T741 355T664 372T528 387Q391 399 305 416T171 468T104 560T86 711Q86 795 115 853T203 946T350 996T559 1012Q621 1012 686 1008T813 997T931 978T1032 952V684H748V811Q726 815 701 817T651 821T603 824T561 825Q506 825 471 821T415 805T387 775T379 727Q379 692 387 673T424 643T505 627T647 614Q782 603 867 588T999 539T1064 448T1081 299Z"/><glyph unicode="t" horiz-adv-x="838" d="M748 8Q721 4 686 1T612 -4T535 -8T463 -10Q383 -10 328 6T237 58T186 151T170 291V741H47V977H170V1288L473 1329V977H727V741H473V358Q473 316 479 290T498 248T530 227T573 221Q599 221 637 223T731 233L748 8Z"/><glyph unicode="u" horiz-adv-x="1364" d="M1315 0H918L887 96Q857 80 808 60T699 21T578 -10T459 -23Q319 -23 248 37T176 231V741H47V977H479V326Q479 296 485 275T507 242T549 223T614 217Q647 217 684 222T757 236T824 254T877 272V741H731V977H1180V231H1315V0Z"/><glyph unicode="v" horiz-adv-x="1364" d="M1317 741H1212L842 -8H535L162 741H47V977H631V754H481L545 625Q549 616 562 587T594 518T631 434T668 349T699 278T717 236Q721 247 734 277T764 346T800 430T837 514T867 582T885 621L950 754H807V977H1317V741Z"/><glyph unicode="w" horiz-adv-x="1862" d="M1815 741H1704L1456 -8H1143L926 512L721 -8H410L160 741H47V977H625V754H471L535 524Q541 501 552 461T574 379T596 299T610 244Q615 262 627 299T655 379T684 462T707 524L825 846H1100L1219 522Q1227 500 1241 462T1271 382T1299 303T1317 244Q1321 265 1330 302T1351 381T1374 461T1391 522L1456 754H1303V977H1815V741Z"/><glyph unicode="x" horiz-adv-x="1300" d="M1253 0H702V195H813L606 393L416 195H526V0H47V231H178L444 500L184 741H70V977H623V778H518L715 592L889 778H799V977H1231V741H1126L874 487L1139 231H1253V0Z"/><glyph unicode="y" horiz-adv-x="1395" d="M1348 741H1241L758 -186H913V-410H279V-186H494L578 -20L162 741H47V977H647V754H487L608 516Q620 492 639 453T678 372T713 297T735 248Q742 262 758 296T794 371T833 452T864 516L981 754H823V977H1348V741Z"/><glyph unicode="z" horiz-adv-x="1182" d="M1124 0H76V219L371 471Q409 504 451 539T534 609T614 675T685 732T739 773T770 795H387V614H98V977H1096V758L766 469Q716 425 660 378T554 289T467 217T418 178H834V381H1124V0Z"/><glyph unicode="{" horiz-adv-x="1012" d="M936 1571L934 1327Q843 1327 776 1318T662 1281T586 1205T541 1077T518 885T512 616Q512 461 518 349T540 159T586 33T662 -41T776 -77T934 -86V-326Q802 -325 701 -312T523 -264T395 -171T310 -20T260 202T240 506H49V741H240Q243 913 259 1041T309 1261T396 1412T525 1507T702 1556T936 1571Z"/><glyph unicode="|" horiz-adv-x="827" d="M539 -279H289V1559H539V-279Z"/><glyph unicode="}" horiz-adv-x="1012" d="M963 506H772Q768 331 752 202T703 -19T617 -171T488 -264T310 -311T76 -326V-86Q167 -86 234 -77T348 -42T425 33T471 159T494 349T500 616Q500 772 494 885T472 1077T426 1205T349 1281T234 1317T76 1327V1571Q207 1570 309 1556T487 1507T615 1413T701 1262T751 1042T772 741H963V506Z"/><glyph unicode="~" horiz-adv-x="1024" d="M963 1262Q925 1231 886 1200T808 1142T731 1100T657 1083Q623 1083 581 1098T498 1132T421 1166T367 1182Q339 1182 297 1150T199 1073L55 1251Q92 1282 131 1313T210 1369T287 1411T358 1427Q392 1427 434 1412T518 1378T595 1345T649 1329Q677 1329 719 1362T817 1440L963 1262Z"/><glyph unicode=" " horiz-adv-x="2048"/><glyph unicode="¡" horiz-adv-x="702" d="M547 1171H156V1499H547V1171ZM547 0H152L223 1051H475L547 0Z"/><glyph unicode="¢" horiz-adv-x="1274" d="M1092 287Q1032 273 949 259T748 240V0H492V244Q386 254 309 285T180 375T105 527T80 752Q80 882 105 974T181 1127T309 1220T492 1264V1511H748V1268Q806 1266 854 1261T945 1248T1023 1231T1092 1212V870H803V1040Q771 1048 732 1053T639 1059Q568 1059 520 1047T443 1001T400 908T387 756Q387 663 400 603T444 507T523 458T643 444Q670 444 691 445T731 448T767 452T803 459V653H1092V287Z"/><glyph unicode="£" horiz-adv-x="1413" d="M1296 0H76V225H354Q345 262 333 311T308 415T282 529T256 645H76V864H205Q199 897 193 931T183 997T175 1058T172 1108Q172 1216 199 1294T291 1424T463 1501T731 1526Q806 1526 882 1521T1031 1507T1172 1486T1296 1458V1081H995V1253Q953 1264 883 1271T731 1278Q660 1278 613 1268T539 1235T500 1177T489 1090Q489 1048 497 988T516 864H836V645H565Q577 590 589 534T615 423T640 318T664 225H995V453H1296V0Z"/><glyph unicode="¤" horiz-adv-x="1152" d="M1056 392L940 284L740 500Q668 452 572 452Q480 452 408 500L208 284L92 392L300 608Q272 648 262 686T252 780Q252 828 262 870T300 952L92 1168L208 1276L408 1060Q480 1108 572 1108Q668 1108 740 1060L944 1276L1060 1156L852 952Q880 912 890 872T900 780Q900 684 848 608L1056 392ZM748 780Q748 860 698 910T572 960Q496 960 448 910T400 780Q400 700 450 652T572 604Q652 604 700 652T748 780Z"/><glyph unicode="¥" horiz-adv-x="1729" d="M1665 1251H1520L1292 938H1569V743H1151L1040 592H1569V397H1018V244H1221V0H502V244H705V397H160V592H678L569 743H160V938H432L209 1251H63V1499H752V1264H543L629 1141Q644 1120 666 1088T713 1019T764 941T815 865T860 798T893 750Q904 766 923 795T968 861T1020 937T1074 1016T1123 1086T1161 1141L1249 1264H1036V1499H1665V1251Z"/><glyph unicode="¦" horiz-adv-x="640" d="M216 788V1636H424V788H216ZM216 -412V440H424V-412H216Z"/><glyph unicode="§" horiz-adv-x="1307" d="M1186 823Q1186 787 1176 748T1150 670T1113 597T1073 535Q1119 497 1136 439T1153 293Q1153 215 1127 159T1044 65T893 10T666 -8Q601 -8 536 -5T408 6T291 23T190 49V319H475V186Q517 178 562 174T649 170Q717 170 759 175T824 193T856 226T864 279Q864 319 856 340T818 373T733 389T582 399Q441 407 351 428T210 484T140 569T121 688Q121 730 132 772T161 852T198 922T236 975Q188 1013 172 1072T156 1219Q156 1295 181 1352T264 1446T415 1501T643 1520Q707 1520 773 1517T900 1506T1017 1487T1116 1460V1194H834V1319Q792 1328 746 1331T657 1335Q589 1335 547 1331T482 1314T452 1282T444 1231Q444 1191 452 1169T489 1136T574 1120T725 1110Q869 1101 959 1081T1100 1026T1168 941T1186 823ZM913 770Q913 795 904 812T868 841T790 860T657 872Q597 877 546 882T453 895Q425 849 410 813T395 741Q395 716 404 699T441 671T518 652T649 639Q711 636 761 630T854 616Q879 654 896 693T913 770Z"/><glyph unicode="¨" horiz-adv-x="1024" d="M887 1098H573V1382H887V1098ZM446 1098H131V1382H446V1098Z"/><glyph unicode="©" horiz-adv-x="1839" d="M1753 750Q1753 596 1734 479T1672 276T1564 132T1406 39T1192 -10T920 -25Q769 -25 649 -11T435 39T276 132T168 276T106 479T86 750Q86 903 106 1020T168 1224T276 1368T435 1461T648 1511T920 1526Q1071 1526 1192 1511T1405 1461T1564 1368T1672 1224T1733 1021T1753 750ZM1573 752Q1573 891 1558 991T1509 1159T1423 1269T1299 1332T1132 1361T920 1368Q803 1368 709 1361T543 1332T418 1269T333 1160T284 991T268 752Q268 613 283 513T332 344T418 234T542 170T709 140T920 133Q1038 133 1132 140T1298 169T1423 233T1508 344T1557 513T1573 752ZM1296 317Q1215 296 1126 283T920 270Q798 270 711 289T567 362T485 509T459 754Q459 898 485 989T567 1133T710 1205T920 1225Q1034 1225 1129 1215T1296 1186V883H1055V1032Q1021 1038 988 1041T920 1044Q860 1044 821 1033T758 992T725 911T715 782V721Q715 643 724 592T757 510T820 466T920 453Q955 453 986 456T1055 467V618H1296V317Z"/><glyph unicode="ª" horiz-adv-x="1055" d="M987 705H666L641 780Q603 765 561 749T475 721T386 700T297 692Q252 692 211 706T139 752T90 831T72 948Q72 977 74 1006T84 1061T105 1108T141 1143Q169 1161 211 1171T313 1188T451 1196T631 1198V1264Q631 1290 628 1308T612 1339T576 1356T514 1362Q485 1362 448 1359T371 1350V1260H129V1491Q166 1498 212 1505T308 1518T410 1526T510 1530Q614 1530 686 1516T804 1470T870 1388T891 1266V907H987V705ZM891 416H129V600H891V416ZM633 918V1061Q575 1061 532 1060T457 1055T403 1048T365 1038Q339 1029 335 1009T330 954Q330 905 350 888T418 870Q439 870 466 873T523 883T580 899T633 918Z"/><glyph unicode="«" horiz-adv-x="1268" d="M1106 63L907 -39L604 469L907 981L1106 879L881 469L1106 63ZM629 63L430 -39L127 469L430 981L629 879L403 469L629 63Z"/><glyph unicode="¬" horiz-adv-x="1536" d="M1116 352V728H212V920H1296V352H1116Z"/><glyph unicode="­" horiz-adv-x="782" d="M696 463H86V696H696V463Z"/><glyph unicode="®" horiz-adv-x="1839" d="M1753 750Q1753 596 1734 479T1672 276T1564 132T1406 39T1192 -10T920 -25Q769 -25 649 -11T435 39T276 132T168 276T106 479T86 750Q86 903 106 1020T168 1224T276 1368T435 1461T648 1511T920 1526Q1071 1526 1192 1511T1405 1461T1564 1368T1672 1224T1733 1021T1753 750ZM1573 752Q1573 891 1558 991T1509 1159T1423 1269T1299 1332T1132 1361T920 1368Q803 1368 709 1361T543 1332T418 1269T333 1160T284 991T268 752Q268 613 283 513T332 344T418 234T542 170T709 140T920 133Q1038 133 1132 140T1298 169T1423 233T1508 344T1557 513T1573 752ZM1386 307H995V479H1047L928 627H799V479H864V307H489V479H567V1020H489V1192H997Q1078 1192 1140 1180T1244 1134T1307 1044T1329 897Q1329 837 1318 795T1286 723T1233 675T1161 645L1294 479H1386V307ZM1081 897Q1081 942 1075 967T1056 1005T1024 1019T979 1022H799V768H963Q995 768 1017 771T1054 788T1074 826T1081 897Z"/><glyph unicode="¯" horiz-adv-x="1024" d="M821 1116H203V1374H821V1116Z"/><glyph unicode="°" horiz-adv-x="1028" d="M956 1108Q956 999 930 920T849 788T710 711T512 686Q398 686 315 710T178 786T98 916T72 1104Q72 1213 98 1292T179 1424T318 1501T516 1526Q630 1526 713 1502T850 1426T930 1296T956 1108ZM705 1104Q705 1179 693 1225T657 1297T597 1332T512 1341Q464 1341 429 1333T370 1300T335 1229T324 1108Q324 1033 336 986T372 914T432 879T516 870Q564 870 600 878T659 912T693 983T705 1104Z"/><glyph unicode="±" horiz-adv-x="1536" d="M672 352V764H200V936H672V1352H864V936H1340V764H864V352H672ZM204 24V216H1336V24H204Z"/><glyph unicode="²" horiz-adv-x="896" d="M56 628V768L400 1108Q472 1176 512 1230T552 1352Q552 1404 506 1436T400 1468Q336 1468 276 1430T172 1348L64 1456Q124 1520 220 1570T428 1620Q568 1620 658 1540T748 1344Q748 1236 658 1134T492 976L268 788H776V628H56Z"/><glyph unicode="³" horiz-adv-x="896" d="M48 732L152 864Q216 816 284 796T424 776Q524 776 572 818T620 928Q620 1004 552 1040T384 1076H312V1204H372Q472 1204 530 1242T588 1336Q588 1400 536 1428T412 1456Q332 1456 272 1430T176 1384L88 1516Q176 1572 268 1596T448 1620Q596 1620 684 1556T772 1376Q772 1276 710 1222T556 1148Q664 1136 738 1080T812 904Q812 764 700 688T432 612Q300 612 206 646T48 732Z"/><glyph unicode="´" horiz-adv-x="1024" d="M842 1421L418 1075L274 1217L631 1632L842 1421Z"/><glyph unicode="µ" horiz-adv-x="1408" d="M252 -424Q196 -424 168 -392T140 -280Q140 -200 144 -106T156 100Q164 200 168 256T172 328Q176 348 176 356V1176H368V320Q368 228 450 176T628 124Q760 124 858 190T1008 380V1176H1200V308L1220 0H1056L1020 176Q952 68 836 14T572 -40Q520 -40 444 -14T324 60Q324 -28 352 -112T380 -264Q380 -424 252 -424Z"/><glyph unicode="¶" horiz-adv-x="1452" d="M1376 0H930V565H766V0H272V244H485V571Q474 571 463 572T444 573Q365 579 298 601T181 675T104 810T76 1022Q76 1168 111 1260T214 1406T378 1479T598 1499H1376V1251H1223V244H1376V0ZM930 784V1255H578Q534 1255 496 1246T430 1210T385 1138T369 1018Q369 942 384 896T427 825T492 792T573 784H930Z"/><glyph unicode="·" horiz-adv-x="698" d="M543 567H156V891H543V567Z"/><glyph unicode="¸" horiz-adv-x="1024" d="M721 -287Q703 -305 669 -327T586 -369T475 -408T338 -436L293 -223Q324 -218 355 -211T412 -195T459 -180T489 -166L455 20L653 61L721 -287Z"/><glyph unicode="¹" horiz-adv-x="768" d="M324 628V1424L144 1384V1528L392 1636H508V628H324Z"/><glyph unicode="º" horiz-adv-x="1053" d="M975 1108Q975 988 949 908T867 778T726 709T524 688Q407 688 323 708T184 777T104 905T78 1104Q78 1223 104 1303T186 1433T326 1503T528 1524Q645 1524 729 1504T868 1435T949 1307T975 1108ZM911 416H139V600H911V416ZM711 1104Q711 1174 701 1220T669 1293T612 1330T524 1341Q472 1341 437 1331T380 1295T349 1224T340 1108Q340 1037 350 991T382 918T440 879T528 868Q580 868 615 878T671 915T702 987T711 1104Z"/><glyph unicode="»" horiz-adv-x="1268" d="M1141 469L838 -39L639 63L864 469L639 879L838 981L1141 469ZM664 469L360 -39L162 63L387 469L162 879L360 981L664 469Z"/><glyph unicode="¼" horiz-adv-x="1920" d="M368 0L1340 1524H1520L548 0H368ZM292 628V1424L112 1384V1528L360 1636H476V628H292ZM1540 0V220H1060V360L1512 980H1724V376H1844V220H1724V0H1540ZM1260 368H1540V768L1260 368Z"/><glyph unicode="½" horiz-adv-x="1920" d="M276 0L1248 1524H1428L456 0H276ZM268 628V1424L88 1384V1528L336 1636H452V628H268ZM1136 0V140L1480 480Q1552 548 1592 602T1632 724Q1632 776 1586 808T1480 840Q1416 840 1356 802T1252 720L1144 828Q1204 892 1300 942T1508 992Q1648 992 1738 912T1828 716Q1828 608 1738 506T1572 348L1348 160H1856V0H1136Z"/><glyph unicode="¾" horiz-adv-x="1920" d="M1564 0V220H1084V360L1536 980H1748V376H1868V220H1748V0H1564ZM48 732L152 864Q216 816 284 796T424 776Q524 776 572 818T620 928Q620 1004 552 1040T384 1076H312V1204H372Q472 1204 530 1242T588 1336Q588 1400 536 1428T412 1456Q332 1456 272 1430T176 1384L88 1516Q176 1572 268 1596T448 1620Q596 1620 684 1556T772 1376Q772 1276 710 1222T556 1148Q664 1136 738 1080T812 904Q812 764 700 688T432 612Q300 612 206 646T48 732ZM440 0L1412 1524H1592L620 0H440ZM1284 368H1564V768L1284 368Z"/><glyph unicode="¿" horiz-adv-x="1356" d="M928 1171H537V1499H928V1171ZM1241 39Q1203 28 1147 17T1019 -5T865 -21T688 -27Q506 -27 387 -8T196 57T97 177T68 362Q68 420 75 466T103 552T159 628T252 702T390 783T582 881V1051H874V776Q762 720 683 680T549 610T463 554T413 502T391 443T385 367Q385 324 399 295T448 247T541 221T688 213Q770 213 836 221T940 240V537H1241V39Z"/><glyph unicode="À" horiz-adv-x="1808" d="M1749 0H1014V231H1253L1163 459H588L498 231H725V0H59V244H209L719 1509H1081L1593 244H1749V0ZM1090 655L1024 827Q1018 842 1006 874T978 947T947 1030T917 1112T892 1179T877 1219Q873 1208 863 1179T838 1111T807 1029T775 947T748 876T731 831L664 655H1090ZM1126 1764L983 1620L559 1966L770 2177L1126 1764Z"/><glyph unicode="Á" horiz-adv-x="1808" d="M1749 0H1014V231H1253L1163 459H588L498 231H725V0H59V244H209L719 1509H1081L1593 244H1749V0ZM1090 655L1024 827Q1018 842 1006 874T978 947T947 1030T917 1112T892 1179T877 1219Q873 1208 863 1179T838 1111T807 1029T775 947T748 876T731 831L664 655H1090ZM1227 1966L803 1620L659 1762L1016 2177L1227 1966Z"/><glyph unicode="Â" horiz-adv-x="1808" d="M1749 0H1014V231H1253L1163 459H588L498 231H725V0H59V244H209L719 1509H1081L1593 244H1749V0ZM1090 655L1024 827Q1018 842 1006 874T978 947T947 1030T917 1112T892 1179T877 1219Q873 1208 863 1179T838 1111T807 1029T775 947T748 876T731 831L664 655H1090ZM1305 1769L1210 1597L893 1757L578 1595L481 1765L893 2048L1305 1769Z"/><glyph unicode="Ã" horiz-adv-x="1808" d="M1749 0H1014V231H1253L1163 459H588L498 231H725V0H59V244H209L719 1509H1081L1593 244H1749V0ZM1090 655L1024 827Q1018 842 1006 874T978 947T947 1030T917 1112T892 1179T877 1219Q873 1208 863 1179T838 1111T807 1029T775 947T748 876T731 831L664 655H1090ZM1344 1807Q1306 1776 1267 1745T1189 1687T1112 1645T1038 1628Q1004 1628 962 1643T879 1677T802 1711T748 1727Q720 1727 678 1695T580 1618L436 1796Q473 1827 512 1858T591 1914T668 1956T739 1972Q773 1972 815 1957T899 1923T976 1890T1030 1874Q1058 1874 1100 1907T1198 1985L1344 1807Z"/><glyph unicode="Ä" horiz-adv-x="1808" d="M1602 1214H1288V1499H1602V1214ZM496 1214H182V1499H496V1214ZM1749 0H1014V231H1253L1163 459H588L498 231H725V0H59V244H209L719 1509H1081L1593 244H1749V0ZM1090 655L1024 827Q1018 842 1006 874T978 947T947 1030T917 1112T892 1179T877 1219Q873 1208 863 1179T838 1111T807 1029T775 947T748 876T731 831L664 655H1090Z"/><glyph unicode="Å" horiz-adv-x="1808" d="M1749 0H1014V231H1253L1163 459H588L498 231H725V0H59V244H209L684 1421Q641 1447 621 1493T600 1608Q600 1673 617 1717T671 1789T762 1829T893 1841Q968 1841 1023 1829T1115 1790T1168 1718T1186 1608Q1186 1543 1168 1500T1114 1430L1593 244H1749V0ZM1090 655L1024 827L877 1219Q873 1208 863 1179T838 1111T807 1029T775 947T748 876T731 831L664 655H1090ZM1008 1608Q1008 1642 1003 1664T984 1699T949 1718T893 1724Q859 1724 837 1719T803 1700T785 1664T780 1608Q780 1575 785 1554T802 1520T837 1502T893 1497Q927 1497 949 1502T984 1519T1002 1553T1008 1608Z"/><glyph unicode="Æ" horiz-adv-x="2429" d="M2310 0H1008V231H1153V459H641L506 231H723V0H72V244H203L836 1253H649V1499H2310V997H2009V1264H1456V883H1878V655H1456V231H2009V537H2310V0ZM1153 668V1296L770 668H1153Z"/><glyph unicode="Ç" horiz-adv-x="1516" d="M1380 47Q1357 40 1313 31T1210 13T1078 -4T924 -16L977 -287Q959 -305 925 -327T842 -369T731 -408T594 -436L549 -223Q580 -218 611 -211T668 -195T715 -180T745 -166L719 -18Q567 -12 450 26T251 151T128 383T86 750Q86 906 108 1024T171 1227T274 1370T414 1460T588 1508T795 1522Q896 1522 990 1515T1161 1497T1296 1474T1380 1452V997H1079V1245Q1061 1248 1029 1252T957 1260T874 1267T791 1270Q687 1270 616 1244T502 1161T439 1018T420 809V698Q420 579 439 491T503 344T618 256T795 227Q838 227 881 229T962 235T1030 243T1079 250V537H1380V47Z"/><glyph unicode="È" horiz-adv-x="1524" d="M1405 0H76V244H233V1251H76V1499H1405V997H1104V1264H551V883H973V655H551V231H1104V537H1405V0ZM995 1764L852 1620L428 1966L639 2177L995 1764Z"/><glyph unicode="É" horiz-adv-x="1524" d="M1405 0H76V244H233V1251H76V1499H1405V997H1104V1264H551V883H973V655H551V231H1104V537H1405V0ZM1094 1966L670 1620L526 1762L883 2177L1094 1966Z"/><glyph unicode="Ê" horiz-adv-x="1524" d="M1405 0H76V244H233V1251H76V1499H1405V997H1104V1264H551V883H973V655H551V231H1104V537H1405V0ZM1172 1790L1077 1618L760 1778L445 1616L348 1786L760 2069L1172 1790Z"/><glyph unicode="Ë" horiz-adv-x="1524" d="M1405 0H76V244H233V1251H76V1499H1405V997H1104V1264H551V883H973V655H551V231H1104V537H1405V0ZM1137 1643H823V1927H1137V1643ZM696 1643H381V1927H696V1643Z"/><glyph unicode="Ì" horiz-adv-x="838" d="M762 1251H578V244H762V0H76V244H260V1251H76V1499H762V1251ZM656 1764L513 1620L89 1966L300 2177L656 1764Z"/><glyph unicode="Í" horiz-adv-x="838" d="M762 1251H578V244H762V0H76V244H260V1251H76V1499H762V1251ZM755 1966L331 1620L187 1762L544 2177L755 1966Z"/><glyph unicode="Î" horiz-adv-x="838" d="M762 1251H578V244H762V0H76V244H260V1251H76V1499H762V1251ZM831 1790L737 1618L420 1778L104 1616L8 1786L420 2068L831 1790Z"/><glyph unicode="Ï" horiz-adv-x="838" d="M762 1251H578V244H762V0H76V244H260V1251H76V1499H762V1251ZM800 1643H486V1927H800V1643ZM359 1643H44V1927H359V1643Z"/><glyph unicode="Ð" horiz-adv-x="1616" d="M1530 750Q1530 588 1510 470T1450 268T1351 132T1213 50T1037 9T823 -2H76V242H233V659H78V866H233V1251H76V1499H823Q939 1499 1036 1489T1213 1449T1351 1367T1450 1231T1510 1030T1530 750ZM1198 700V799Q1198 929 1178 1018T1114 1163T997 1243T821 1268H551V866H803V659H551V225H821Q925 225 997 251T1113 333T1178 480T1198 700Z"/><glyph unicode="Ñ" horiz-adv-x="1755" d="M1679 1251H1528V0H1223L502 1124Q503 1111 504 1069T507 971T508 850T509 727T510 622T510 557V244H694V0H76V244H233V1251H76V1499H612L1262 489Q1260 503 1258 538T1255 621T1253 722T1252 826T1251 920T1251 989V1251H1075V1499H1679V1251ZM1317 1807Q1279 1776 1240 1745T1162 1687T1085 1645T1011 1628Q977 1628 935 1643T852 1677T775 1711T721 1727Q693 1727 651 1695T553 1618L409 1796Q446 1827 485 1858T564 1914T641 1956T712 1972Q746 1972 788 1957T872 1923T949 1890T1003 1874Q1031 1874 1073 1907T1171 1985L1317 1807Z"/><glyph unicode="Ò" horiz-adv-x="1634" d="M1548 754Q1548 591 1524 471T1454 264T1344 121T1197 33T1020 -12T815 -25Q707 -25 612 -13T435 31T290 118T180 260T110 467T86 750Q86 912 110 1032T180 1239T291 1380T437 1467T615 1511T819 1524Q927 1524 1023 1512T1200 1469T1345 1383T1455 1243T1524 1037T1548 754ZM1217 694V805Q1217 940 1193 1030T1118 1175T993 1253T815 1276Q713 1276 639 1254T516 1178T444 1034T420 809V698Q420 563 444 472T517 324T642 243T819 219Q921 219 996 242T1120 321T1193 468T1217 694ZM1052 1764L909 1620L485 1966L696 2177L1052 1764Z"/><glyph unicode="Ó" horiz-adv-x="1634" d="M1548 754Q1548 591 1524 471T1454 264T1344 121T1197 33T1020 -12T815 -25Q707 -25 612 -13T435 31T290 118T180 260T110 467T86 750Q86 912 110 1032T180 1239T291 1380T437 1467T615 1511T819 1524Q927 1524 1023 1512T1200 1469T1345 1383T1455 1243T1524 1037T1548 754ZM1217 694V805Q1217 940 1193 1030T1118 1175T993 1253T815 1276Q713 1276 639 1254T516 1178T444 1034T420 809V698Q420 563 444 472T517 324T642 243T819 219Q921 219 996 242T1120 321T1193 468T1217 694ZM1151 1966L727 1620L583 1762L940 2177L1151 1966Z"/><glyph unicode="Ô" horiz-adv-x="1634" d="M1548 754Q1548 591 1524 471T1454 264T1344 121T1197 33T1020 -12T815 -25Q707 -25 612 -13T435 31T290 118T180 260T110 467T86 750Q86 912 110 1032T180 1239T291 1380T437 1467T615 1511T819 1524Q927 1524 1023 1512T1200 1469T1345 1383T1455 1243T1524 1037T1548 754ZM1217 694V805Q1217 940 1193 1030T1118 1175T993 1253T815 1276Q713 1276 639 1254T516 1178T444 1034T420 809V698Q420 563 444 472T517 324T642 243T819 219Q921 219 996 242T1120 321T1193 468T1217 694ZM1229 1790L1134 1618L817 1778L502 1616L405 1786L817 2069L1229 1790Z"/><glyph unicode="Õ" horiz-adv-x="1634" d="M1548 754Q1548 591 1524 471T1454 264T1344 121T1197 33T1020 -12T815 -25Q707 -25 612 -13T435 31T290 118T180 260T110 467T86 750Q86 912 110 1032T180 1239T291 1380T437 1467T615 1511T819 1524Q927 1524 1023 1512T1200 1469T1345 1383T1455 1243T1524 1037T1548 754ZM1217 694V805Q1217 940 1193 1030T1118 1175T993 1253T815 1276Q713 1276 639 1254T516 1178T444 1034T420 809V698Q420 563 444 472T517 324T642 243T819 219Q921 219 996 242T1120 321T1193 468T1217 694ZM1268 1807Q1230 1776 1191 1745T1113 1687T1036 1645T962 1628Q928 1628 886 1643T803 1677T726 1711T672 1727Q644 1727 602 1695T504 1618L360 1796Q397 1827 436 1858T515 1914T592 1956T663 1972Q697 1972 739 1957T823 1923T900 1890T954 1874Q982 1874 1024 1907T1122 1985L1268 1807Z"/><glyph unicode="Ö" horiz-adv-x="1634" d="M1548 754Q1548 591 1524 471T1454 264T1344 121T1197 33T1020 -12T815 -25Q707 -25 612 -13T435 31T290 118T180 260T110 467T86 750Q86 912 110 1032T180 1239T291 1380T437 1467T615 1511T819 1524Q927 1524 1023 1512T1200 1469T1345 1383T1455 1243T1524 1037T1548 754ZM1217 694V805Q1217 940 1193 1030T1118 1175T993 1253T815 1276Q713 1276 639 1254T516 1178T444 1034T420 809V698Q420 563 444 472T517 324T642 243T819 219Q921 219 996 242T1120 321T1193 468T1217 694ZM1194 1643H880V1927H1194V1643ZM753 1643H438V1927H753V1643Z"/><glyph unicode="×" horiz-adv-x="1536" d="M472 376L352 492L648 792L352 1088L480 1212L768 912L1068 1204L1184 1088L892 792L1184 492L1068 376L768 668L472 376Z"/><glyph unicode="Ø" horiz-adv-x="1634" d="M1548 754Q1548 591 1524 471T1454 264T1344 121T1197 33T1020 -12T815 -25Q713 -25 622 -14T451 25L332 -160L168 -51L283 125Q236 167 200 225T138 359T99 533T86 750Q86 912 110 1032T180 1239T291 1380T437 1467T615 1511T819 1524Q916 1524 1003 1515T1165 1481L1288 1671L1452 1561L1339 1389Q1388 1347 1427 1289T1493 1153T1534 976T1548 754ZM1219 694V805Q1219 914 1204 993T1157 1128L592 260Q637 237 693 227T819 217Q922 217 997 240T1122 319T1195 465T1219 694ZM1026 1245Q983 1264 931 1272T815 1280Q712 1280 637 1258T513 1181T440 1037T416 809V698Q416 596 429 521T469 389L1026 1245Z"/><glyph unicode="Ù" horiz-adv-x="1751" d="M1675 1251H1528V532Q1528 366 1490 259T1373 90T1171 4T881 -20Q713 -20 589 2T384 86T263 253T223 528V1251H76V1499H745V1251H541V537Q541 445 560 388T620 297T726 252T885 240Q978 240 1042 250T1147 292T1206 380T1225 532V1251H1030V1499H1675V1251ZM1110 1764L967 1620L543 1966L754 2177L1110 1764Z"/><glyph unicode="Ú" horiz-adv-x="1751" d="M1675 1251H1528V532Q1528 366 1490 259T1373 90T1171 4T881 -20Q713 -20 589 2T384 86T263 253T223 528V1251H76V1499H745V1251H541V537Q541 445 560 388T620 297T726 252T885 240Q978 240 1042 250T1147 292T1206 380T1225 532V1251H1030V1499H1675V1251ZM1209 1966L785 1620L641 1762L998 2177L1209 1966Z"/><glyph unicode="Û" horiz-adv-x="1751" d="M1675 1251H1528V532Q1528 366 1490 259T1373 90T1171 4T881 -20Q713 -20 589 2T384 86T263 253T223 528V1251H76V1499H745V1251H541V537Q541 445 560 388T620 297T726 252T885 240Q978 240 1042 250T1147 292T1206 380T1225 532V1251H1030V1499H1675V1251ZM1289 1790L1194 1618L877 1778L562 1616L465 1786L877 2069L1289 1790Z"/><glyph unicode="Ü" horiz-adv-x="1751" d="M1675 1251H1528V532Q1528 366 1490 259T1373 90T1171 4T881 -20Q713 -20 589 2T384 86T263 253T223 528V1251H76V1499H745V1251H541V537Q541 445 560 388T620 297T726 252T885 240Q978 240 1042 250T1147 292T1206 380T1225 532V1251H1030V1499H1675V1251ZM1256 1643H942V1927H1256V1643ZM815 1643H500V1927H815V1643Z"/><glyph unicode="Ý" horiz-adv-x="1729" d="M1665 1251H1520L1020 549V244H1221V0H502V244H702V543L209 1251H63V1499H745V1264H557L639 1145Q652 1125 673 1095T718 1028T769 953T819 879T862 814T893 768Q903 783 922 812T965 877T1016 952T1068 1029T1114 1096T1149 1145L1235 1264H1034V1499H1665V1251ZM1198 1966L774 1620L630 1762L987 2177L1198 1966Z"/><glyph unicode="Þ" horiz-adv-x="1520" d="M1454 774Q1454 618 1417 523T1312 375T1146 305T928 287H551V0H76V244H233V1251H76V1499H551V1257H932Q1052 1257 1149 1240T1313 1172T1417 1025T1454 774ZM1137 770Q1137 846 1121 893T1076 967T1010 1002T928 1012H551V528H932Q976 528 1013 537T1078 573T1121 646T1137 770Z"/><glyph unicode="ß" horiz-adv-x="1438" d="M1391 473Q1391 359 1370 282T1296 160Q1255 124 1200 98T1071 53T902 18T688 -14L655 217Q740 228 805 238T919 260T1001 287T1057 324Q1086 350 1094 385T1102 473Q1102 500 1101 522T1094 562T1080 595T1055 625Q1013 663 930 682T723 721V913Q774 971 808 1012T861 1087T889 1154T897 1231Q897 1267 886 1287T848 1318T777 1332T666 1335Q629 1335 604 1330T564 1313T543 1280T537 1225V0H74V231H233V743H74V977H233V1245Q233 1333 255 1393T329 1490T466 1543T678 1559Q816 1559 913 1547T1072 1499T1162 1400T1190 1235Q1190 1176 1177 1133T1137 1051T1067 977T965 895Q1017 886 1067 873T1163 842T1245 799T1309 743Q1349 697 1370 632T1391 473Z"/><glyph unicode="à" horiz-adv-x="1237" d="M1192 0H807L776 100Q748 86 704 67T602 29T480 -1T344 -14Q289 -14 240 2T153 56T94 154T72 301Q72 336 75 372T89 440T116 498T160 539Q197 560 252 572T383 591T553 600T766 602V686Q766 721 760 745T736 785T687 808T606 815Q562 815 514 811T430 801V684H141V967Q173 974 226 981T342 995T474 1006T608 1010Q738 1010 826 992T968 934T1045 834T1069 686V231H1192V0ZM766 246V442Q632 442 548 437T420 416Q392 406 384 379T375 307Q375 238 403 214T492 190Q523 190 562 196T641 211T713 229T766 246ZM851 1219L708 1075L284 1421L495 1632L851 1219Z"/><glyph unicode="á" horiz-adv-x="1237" d="M1192 0H807L776 100Q748 86 704 67T602 29T480 -1T344 -14Q289 -14 240 2T153 56T94 154T72 301Q72 336 75 372T89 440T116 498T160 539Q197 560 252 572T383 591T553 600T766 602V686Q766 721 760 745T736 785T687 808T606 815Q562 815 514 811T430 801V684H141V967Q173 974 226 981T342 995T474 1006T608 1010Q738 1010 826 992T968 934T1045 834T1069 686V231H1192V0ZM766 246V442Q632 442 548 437T420 416Q392 406 384 379T375 307Q375 238 403 214T492 190Q523 190 562 196T641 211T713 229T766 246ZM951 1421L527 1075L383 1217L740 1632L951 1421Z"/><glyph unicode="â" horiz-adv-x="1237" d="M1192 0H807L776 100Q748 86 704 67T602 29T480 -1T344 -14Q289 -14 240 2T153 56T94 154T72 301Q72 336 75 372T89 440T116 498T160 539Q197 560 252 572T383 591T553 600T766 602V686Q766 721 760 745T736 785T687 808T606 815Q562 815 514 811T430 801V684H141V967Q173 974 226 981T342 995T474 1006T608 1010Q738 1010 826 992T968 934T1045 834T1069 686V231H1192V0ZM766 246V442Q632 442 548 437T420 416Q392 406 384 379T375 307Q375 238 403 214T492 190Q523 190 562 196T641 211T713 229T766 246ZM1028 1245L933 1073L616 1233L301 1071L204 1241L616 1524L1028 1245Z"/><glyph unicode="ã" horiz-adv-x="1237" d="M1192 0H807L776 100Q748 86 704 67T602 29T480 -1T344 -14Q289 -14 240 2T153 56T94 154T72 301Q72 336 75 372T89 440T116 498T160 539Q197 560 252 572T383 591T553 600T766 602V686Q766 721 760 745T736 785T687 808T606 815Q562 815 514 811T430 801V684H141V967Q173 974 226 981T342 995T474 1006T608 1010Q738 1010 826 992T968 934T1045 834T1069 686V231H1192V0ZM766 246V442Q632 442 548 437T420 416Q392 406 384 379T375 307Q375 238 403 214T492 190Q523 190 562 196T641 211T713 229T766 246ZM1067 1262Q1029 1231 990 1200T912 1142T835 1100T761 1083Q727 1083 685 1098T602 1132T525 1166T471 1182Q443 1182 401 1150T303 1073L159 1251Q196 1282 235 1313T314 1369T391 1411T462 1427Q496 1427 538 1412T622 1378T699 1345T753 1329Q781 1329 823 1362T921 1440L1067 1262Z"/><glyph unicode="ä" horiz-adv-x="1237" d="M1192 0H807L776 100Q748 86 704 67T602 29T480 -1T344 -14Q289 -14 240 2T153 56T94 154T72 301Q72 336 75 372T89 440T116 498T160 539Q197 560 252 572T383 591T553 600T766 602V686Q766 721 760 745T736 785T687 808T606 815Q562 815 514 811T430 801V684H141V967Q173 974 226 981T342 995T474 1006T608 1010Q738 1010 826 992T968 934T1045 834T1069 686V231H1192V0ZM766 246V442Q632 442 548 437T420 416Q392 406 384 379T375 307Q375 238 403 214T492 190Q523 190 562 196T641 211T713 229T766 246ZM996 1098H682V1382H996V1098ZM555 1098H240V1382H555V1098Z"/><glyph unicode="å" horiz-adv-x="1237" d="M1192 0H807L776 100Q748 86 704 67T602 29T480 -1T344 -14Q289 -14 240 2T153 56T94 154T72 301Q72 336 75 372T89 440T116 498T160 539Q197 560 252 572T383 591T553 600T766 602V686Q766 721 760 745T736 785T687 808T606 815Q562 815 514 811T430 801V684H141V967Q173 974 226 981T342 995T474 1006T608 1010Q738 1010 826 992T968 934T1045 834T1069 686V231H1192V0ZM766 246V442Q632 442 548 437T420 416Q392 406 384 379T375 307Q375 238 403 214T492 190Q523 190 562 196T641 211T713 229T766 246ZM909 1315Q909 1250 891 1207T837 1137T745 1099T616 1087Q541 1087 486 1098T394 1136T341 1206T323 1315Q323 1380 340 1424T394 1496T485 1536T616 1548Q691 1548 746 1536T838 1497T891 1425T909 1315ZM731 1315Q731 1349 726 1371T707 1407T672 1426T616 1432Q582 1432 560 1427T526 1408T508 1372T503 1315Q503 1282 508 1261T525 1227T560 1209T616 1204Q650 1204 672 1209T707 1226T725 1260T731 1315Z"/><glyph unicode="æ" horiz-adv-x="1898" d="M1796 444H1069Q1071 361 1087 309T1135 228T1214 187T1327 176Q1381 176 1420 180T1487 193V317H1778V33Q1752 26 1711 17T1612 1T1482 -12T1323 -18Q1234 -18 1163 -11T1036 13T937 57T860 125Q724 63 593 25T344 -14Q289 -14 240 3T153 58T94 156T72 303Q72 338 75 373T88 438T115 492T158 530Q238 574 390 589T766 604V686Q766 721 760 745T736 785T687 808T606 815Q563 815 518 811T430 801V684H141V969Q187 977 243 984T361 997T485 1006T608 1010Q737 1010 819 981T952 897Q1015 959 1099 985T1296 1012Q1440 1012 1536 992T1690 921T1772 782T1796 555V444ZM795 252Q782 292 776 342T766 449Q628 449 546 441T422 420Q393 409 384 380T375 307Q375 273 382 251T403 215T440 196T492 190Q558 190 634 206T795 252ZM1499 608Q1497 672 1487 712T1453 775T1391 806T1290 815Q1235 815 1198 806T1135 774T1096 710T1073 608H1499Z"/><glyph unicode="ç" horiz-adv-x="1219" d="M1092 31Q1033 17 954 4T764 -14L817 -287Q799 -305 765 -327T682 -369T571 -408T434 -436L389 -223Q420 -218 451 -211T508 -195T555 -180T586 -166L557 -16Q433 -11 343 17T195 104T108 259T80 496Q80 649 113 749T216 908T392 990T643 1014Q725 1014 790 1010T908 997T1006 979T1092 958V614H803V786Q771 794 732 798T639 803Q568 803 520 791T443 745T400 652T387 500Q387 407 400 347T444 251T523 202T643 188Q670 188 691 189T731 192T767 197T803 205V381H1092V31Z"/><glyph unicode="è" horiz-adv-x="1214" d="M1110 446H385Q386 362 402 310T450 228T529 187T641 176Q697 176 736 180T803 193V317H1092V33Q1067 26 1026 17T927 1T797 -12T637 -18Q492 -18 387 5T214 87T113 245T80 496Q80 652 114 752T216 910T382 990T610 1012Q755 1012 851 992T1005 921T1086 782T1110 557V446ZM815 608Q813 672 803 712T769 776T705 807T604 815Q553 815 517 807T455 777T413 714T387 608H815ZM841 1219L698 1075L274 1421L485 1632L841 1219Z"/><glyph unicode="é" horiz-adv-x="1214" d="M1110 446H385Q386 362 402 310T450 228T529 187T641 176Q697 176 736 180T803 193V317H1092V33Q1067 26 1026 17T927 1T797 -12T637 -18Q492 -18 387 5T214 87T113 245T80 496Q80 652 114 752T216 910T382 990T610 1012Q755 1012 851 992T1005 921T1086 782T1110 557V446ZM815 608Q813 672 803 712T769 776T705 807T604 815Q553 815 517 807T455 777T413 714T387 608H815ZM940 1421L516 1075L372 1217L729 1632L940 1421Z"/><glyph unicode="ê" horiz-adv-x="1214" d="M1110 446H385Q386 362 402 310T450 228T529 187T641 176Q697 176 736 180T803 193V317H1092V33Q1067 26 1026 17T927 1T797 -12T637 -18Q492 -18 387 5T214 87T113 245T80 496Q80 652 114 752T216 910T382 990T610 1012Q755 1012 851 992T1005 921T1086 782T1110 557V446ZM815 608Q813 672 803 712T769 776T705 807T604 815Q553 815 517 807T455 777T413 714T387 608H815ZM1018 1245L923 1073L606 1233L291 1071L194 1241L606 1524L1018 1245Z"/><glyph unicode="ë" horiz-adv-x="1214" d="M1110 446H385Q386 362 402 310T450 228T529 187T641 176Q697 176 736 180T803 193V317H1092V33Q1067 26 1026 17T927 1T797 -12T637 -18Q492 -18 387 5T214 87T113 245T80 496Q80 652 114 752T216 910T382 990T610 1012Q755 1012 851 992T1005 921T1086 782T1110 557V446ZM815 608Q813 672 803 712T769 776T705 807T604 815Q553 815 517 807T455 777T413 714T387 608H815ZM983 1098H669V1382H983V1098ZM542 1098H227V1382H542V1098Z"/><glyph unicode="ì" horiz-adv-x="733" d="M686 0H76V231H236V741H76V977H539V231H686V0ZM603 1219L460 1075L36 1421L247 1632L603 1219Z"/><glyph unicode="í" horiz-adv-x="733" d="M686 0H76V231H236V741H76V977H539V231H686V0ZM702 1421L278 1075L134 1217L491 1632L702 1421Z"/><glyph unicode="î" horiz-adv-x="733" d="M686 0H76V231H236V741H76V977H539V231H686V0ZM778 1245L684 1073L367 1233L51 1071L-45 1241L367 1524L778 1245Z"/><glyph unicode="ï" horiz-adv-x="733" d="M686 0H76V231H236V741H76V977H539V231H686V0ZM745 1098H431V1382H745V1098ZM304 1098H-11V1382H304V1098Z"/><glyph unicode="ð" horiz-adv-x="1286" d="M1298 1020H1163Q1179 941 1187 856T1196 678Q1196 542 1187 438T1154 255T1090 124T987 38T838 -9T635 -23Q552 -23 479 -16T345 10T236 66T155 161T104 304T86 506Q86 623 100 705T139 841T199 927T274 975T360 995T451 999Q492 999 547 992T662 971T778 940T881 901Q873 965 858 1031T825 1156T792 1257T770 1319H561V1559H999Q1022 1511 1051 1434T1110 1255H1298V1020ZM893 565Q893 575 893 592T893 627T893 662T891 688Q809 722 734 740T578 758Q528 758 493 750T435 715T402 638T391 502Q391 407 404 347T447 251T525 202T643 188Q728 188 778 210T853 279T886 396T893 565Z"/><glyph unicode="ñ" horiz-adv-x="1386" d="M1337 0H795V231H905V651Q905 681 899 702T877 735T835 754T770 760Q737 760 700 755T627 741T560 723T508 705V231H618V0H76V231H205V741H76V977H467L498 881Q528 897 577 917T685 956T807 986T926 999Q1064 999 1136 939T1208 745V231H1337V0ZM1143 1262Q1105 1231 1066 1200T988 1142T911 1100T837 1083Q803 1083 761 1098T678 1132T601 1166T547 1182Q519 1182 477 1150T379 1073L235 1251Q272 1282 311 1313T390 1369T467 1411T538 1427Q572 1427 614 1412T698 1378T775 1345T829 1329Q857 1329 899 1362T997 1440L1143 1262Z"/><glyph unicode="ò" horiz-adv-x="1268" d="M1186 500Q1186 351 1155 252T1056 92T883 7T631 -18Q485 -18 381 6T210 90T112 248T80 496Q80 645 112 744T211 904T384 989T635 1014Q782 1014 886 990T1057 906T1155 748T1186 500ZM881 496Q881 587 867 646T823 740T746 789T631 803Q565 803 519 790T443 743T401 650T387 500Q387 408 401 348T445 253T522 203T635 188Q702 188 748 202T824 250T867 344T881 496ZM868 1219L725 1075L301 1421L512 1632L868 1219Z"/><glyph unicode="ó" horiz-adv-x="1268" d="M1186 500Q1186 351 1155 252T1056 92T883 7T631 -18Q485 -18 381 6T210 90T112 248T80 496Q80 645 112 744T211 904T384 989T635 1014Q782 1014 886 990T1057 906T1155 748T1186 500ZM881 496Q881 587 867 646T823 740T746 789T631 803Q565 803 519 790T443 743T401 650T387 500Q387 408 401 348T445 253T522 203T635 188Q702 188 748 202T824 250T867 344T881 496ZM967 1421L543 1075L399 1217L756 1632L967 1421Z"/><glyph unicode="ô" horiz-adv-x="1268" d="M1186 500Q1186 351 1155 252T1056 92T883 7T631 -18Q485 -18 381 6T210 90T112 248T80 496Q80 645 112 744T211 904T384 989T635 1014Q782 1014 886 990T1057 906T1155 748T1186 500ZM881 496Q881 587 867 646T823 740T746 789T631 803Q565 803 519 790T443 743T401 650T387 500Q387 408 401 348T445 253T522 203T635 188Q702 188 748 202T824 250T867 344T881 496ZM1045 1245L950 1073L633 1233L318 1071L221 1241L633 1524L1045 1245Z"/><glyph unicode="õ" horiz-adv-x="1268" d="M1186 500Q1186 351 1155 252T1056 92T883 7T631 -18Q485 -18 381 6T210 90T112 248T80 496Q80 645 112 744T211 904T384 989T635 1014Q782 1014 886 990T1057 906T1155 748T1186 500ZM881 496Q881 587 867 646T823 740T746 789T631 803Q565 803 519 790T443 743T401 650T387 500Q387 408 401 348T445 253T522 203T635 188Q702 188 748 202T824 250T867 344T881 496ZM1084 1262Q1046 1231 1007 1200T929 1142T852 1100T778 1083Q744 1083 702 1098T619 1132T542 1166T488 1182Q460 1182 418 1150T320 1073L176 1251Q213 1282 252 1313T331 1369T408 1411T479 1427Q513 1427 555 1412T639 1378T716 1345T770 1329Q798 1329 840 1362T938 1440L1084 1262Z"/><glyph unicode="ö" horiz-adv-x="1268" d="M1186 500Q1186 351 1155 252T1056 92T883 7T631 -18Q485 -18 381 6T210 90T112 248T80 496Q80 645 112 744T211 904T384 989T635 1014Q782 1014 886 990T1057 906T1155 748T1186 500ZM881 496Q881 587 867 646T823 740T746 789T631 803Q565 803 519 790T443 743T401 650T387 500Q387 408 401 348T445 253T522 203T635 188Q702 188 748 202T824 250T867 344T881 496ZM1012 1098H698V1382H1012V1098ZM571 1098H256V1382H571V1098Z"/><glyph unicode="÷" horiz-adv-x="1536" d="M208 684V896H1328V684H208ZM768 228Q704 228 656 276T608 388Q608 452 650 500T768 548Q840 548 884 500T928 388Q928 324 880 276T768 228ZM768 1028Q704 1028 656 1076T608 1188Q608 1252 650 1300T768 1348Q840 1348 884 1300T928 1188Q928 1124 880 1076T768 1028Z"/><glyph unicode="ø" horiz-adv-x="1268" d="M1186 500Q1186 351 1155 252T1056 92T883 7T631 -18Q556 -18 495 -12T381 6L252 -156L100 -35L203 96Q140 156 110 253T80 496Q80 645 112 744T211 904T384 989T635 1014Q715 1014 781 1008T903 985L1028 1147L1180 1026L1073 891Q1132 831 1159 736T1186 500ZM762 786Q711 805 631 805Q563 805 517 792T441 745T398 651T385 500Q385 394 403 330L762 786ZM883 496Q883 542 880 580T868 649L516 201Q541 191 570 188T635 184Q703 184 750 198T827 247T870 343T883 496Z"/><glyph unicode="ù" horiz-adv-x="1364" d="M1315 0H918L887 96Q857 80 808 60T699 21T578 -10T459 -23Q319 -23 248 37T176 231V741H47V977H479V326Q479 296 485 275T507 242T549 223T614 217Q647 217 684 222T757 236T824 254T877 272V741H731V977H1180V231H1315V0ZM917 1219L774 1075L350 1421L561 1632L917 1219Z"/><glyph unicode="ú" horiz-adv-x="1364" d="M1315 0H918L887 96Q857 80 808 60T699 21T578 -10T459 -23Q319 -23 248 37T176 231V741H47V977H479V326Q479 296 485 275T507 242T549 223T614 217Q647 217 684 222T757 236T824 254T877 272V741H731V977H1180V231H1315V0ZM1016 1421L592 1075L448 1217L805 1632L1016 1421Z"/><glyph unicode="û" horiz-adv-x="1364" d="M1315 0H918L887 96Q857 80 808 60T699 21T578 -10T459 -23Q319 -23 248 37T176 231V741H47V977H479V326Q479 296 485 275T507 242T549 223T614 217Q647 217 684 222T757 236T824 254T877 272V741H731V977H1180V231H1315V0ZM1094 1245L999 1073L682 1233L367 1071L270 1241L682 1524L1094 1245Z"/><glyph unicode="ü" horiz-adv-x="1364" d="M1315 0H918L887 96Q857 80 808 60T699 21T578 -10T459 -23Q319 -23 248 37T176 231V741H47V977H479V326Q479 296 485 275T507 242T549 223T614 217Q647 217 684 222T757 236T824 254T877 272V741H731V977H1180V231H1315V0ZM1039 1098H725V1382H1039V1098ZM598 1098H283V1382H598V1098Z"/><glyph unicode="ý" horiz-adv-x="1395" d="M1348 741H1241L758 -186H913V-410H279V-186H494L578 -20L162 741H47V977H647V754H487L608 516Q620 492 639 453T678 372T713 297T735 248Q742 262 758 296T794 371T833 452T864 516L981 754H823V977H1348V741ZM1030 1421L606 1075L462 1217L819 1632L1030 1421Z"/><glyph unicode="þ" horiz-adv-x="1321" d="M1235 494Q1235 340 1211 241T1143 85T1036 6T895 -16Q842 -16 788 -9T680 9T578 36T485 68V-180H635V-410H53V-180H182V1321H53V1559H485V887Q530 907 582 927T690 963T801 989T905 999Q983 999 1044 978T1147 900T1212 746T1235 494ZM928 489Q928 574 919 628T891 712T842 753T770 764Q699 764 632 749T485 707V250Q548 233 620 221T770 209Q810 209 840 221T889 265T918 351T928 489Z"/><glyph unicode="ÿ" horiz-adv-x="1395" d="M1348 741H1241L758 -186H913V-410H279V-186H494L578 -20L162 741H47V977H647V754H487L608 516Q620 492 639 453T678 372T713 297T735 248Q742 262 758 296T794 371T833 452T864 516L981 754H823V977H1348V741ZM1112 1098H798V1382H1112V1098ZM671 1098H356V1382H671V1098Z"/><glyph unicode="ı" horiz-adv-x="733" d="M686 0H76V231H236V741H76V977H539V231H686V0Z"/><glyph unicode="Ł" horiz-adv-x="1464" d="M1405 0H76V246H233V618L104 596L70 801L233 829V1253H76V1499H764V1253H551V887L782 928L817 723L551 676V240H1102V537H1405V0Z"/><glyph unicode="ł" horiz-adv-x="745" d="M696 0H61V233H221V618L98 596L63 801L221 829V1325H61V1559H524V883L659 905L694 702L524 672V233H696V0Z"/><glyph unicode="Œ" horiz-adv-x="2329" d="M2210 0H780Q664 0 567 10T391 50T253 132T154 268T94 469T74 748Q74 909 94 1027T153 1229T252 1365T390 1447T566 1488T780 1499H2210V997H1909V1264H1356V883H1778V655H1356V231H1909V537H2210V0ZM1053 238V1255H782Q678 1255 606 1232T488 1156T422 1015T401 797V698Q401 569 421 481T488 339T606 262T782 238H1053Z"/><glyph unicode="œ" horiz-adv-x="1999" d="M1894 446H1169Q1171 363 1187 311T1234 228T1313 187T1425 176Q1481 176 1520 180T1587 193V317H1876V33Q1851 26 1810 17T1712 1T1582 -12T1421 -18Q1342 -18 1280 -10T1169 17T1083 62T1018 127Q959 53 861 18T612 -18Q466 -18 362 6T191 90T93 248T61 496Q61 645 93 744T192 904T365 989T616 1014Q766 1014 863 980T1020 870Q1077 945 1169 978T1395 1012Q1540 1012 1636 992T1789 921T1870 782T1894 557V446ZM862 496Q862 587 848 646T804 740T727 789T612 803Q546 803 500 790T425 743T382 650T369 500Q369 408 383 348T426 253T503 203T616 188Q683 188 730 202T806 250T848 344T862 496ZM1599 608Q1597 672 1587 712T1553 776T1490 807T1389 815Q1334 815 1297 807T1234 775T1195 711T1171 608H1599Z"/><glyph unicode="Š" horiz-adv-x="1479" d="M1403 426Q1403 295 1368 210T1253 75T1043 4T721 -16Q604 -16 503 -9T322 7T187 26T106 41V487H408V229Q427 224 462 220T540 212T632 206T725 203Q830 203 897 212T1002 246T1056 311T1071 416Q1071 473 1057 507T1003 561T895 593T717 618Q596 632 504 648T343 686T228 742T154 824T114 943T102 1106Q102 1224 139 1303T253 1430T449 1498T733 1518Q792 1518 854 1515T977 1506T1094 1493T1197 1478T1278 1463T1329 1450V1047H1028V1272Q1016 1274 985 1278T911 1285T821 1291T729 1294Q644 1294 587 1287T495 1259T445 1202T430 1110Q430 1054 444 1019T496 960T602 923T776 897Q890 884 981 871T1141 837T1260 785T1342 706T1388 590T1403 426ZM1151 1903L739 1618L327 1899L422 2071L739 1911L1054 2071L1151 1903Z"/><glyph unicode="š" horiz-adv-x="1157" d="M1081 299Q1081 201 1053 140T964 44T806 -3T571 -16Q498 -16 430 -12T302 -2T190 12T100 29V317H383V178Q431 170 478 167T571 164Q644 164 686 168T750 186T778 221T784 279Q784 309 776 326T741 355T664 372T528 387Q391 399 305 416T171 468T104 560T86 711Q86 795 115 853T203 946T350 996T559 1012Q621 1012 686 1008T813 997T931 978T1032 952V684H748V811Q726 815 701 817T651 821T603 824T561 825Q506 825 471 821T415 805T387 775T379 727Q379 692 387 673T424 643T505 627T647 614Q782 603 867 588T999 539T1064 448T1081 299ZM990 1358L578 1073L166 1354L261 1526L578 1366L893 1526L990 1358Z"/><glyph unicode="Ÿ" horiz-adv-x="1729" d="M1665 1251H1520L1020 549V244H1221V0H502V244H702V543L209 1251H63V1499H745V1264H557L639 1145Q652 1125 673 1095T718 1028T769 953T819 879T862 814T893 768Q903 783 922 812T965 877T1016 952T1068 1029T1114 1096T1149 1145L1235 1264H1034V1499H1665V1251ZM1266 1643H952V1927H1266V1643ZM825 1643H510V1927H825V1643Z"/><glyph unicode="Ž" horiz-adv-x="1448" d="M1372 0H78V256L561 801Q604 849 653 903T752 1009T848 1110T930 1196T990 1257T1018 1284H399V997H96V1499H1358V1237L924 758Q883 713 833 657T730 543T627 428T534 326T463 249T424 211H1069V537H1372V0ZM1127 1903L715 1618L303 1899L398 2071L715 1911L1030 2071L1127 1903Z"/><glyph unicode="ž" horiz-adv-x="1182" d="M1124 0H76V219L371 471Q409 504 451 539T534 609T614 675T685 732T739 773T770 795H387V614H98V977H1096V758L766 469Q716 425 660 378T554 289T467 217T418 178H834V381H1124V0ZM1002 1358L590 1073L178 1354L273 1526L590 1366L905 1526L1002 1358Z"/><glyph unicode="ƒ" horiz-adv-x="1010" d="M934 1337Q871 1325 827 1315T753 1295T706 1271T677 1241T661 1199T649 1143L602 870H834V637H561L375 -410L82 -360L258 637H143V870H299L360 1212Q371 1273 386 1320T427 1402T490 1464T584 1510T719 1546T905 1577L934 1337Z"/><glyph unicode="ˆ" horiz-adv-x="1024" d="M924 1245L829 1073L512 1233L197 1071L100 1241L512 1524L924 1245Z"/><glyph unicode="ˇ" horiz-adv-x="1024" d="M924 1358L512 1073L100 1354L195 1526L512 1366L827 1526L924 1358Z"/><glyph unicode="˘" horiz-adv-x="1024" d="M901 1151Q877 1135 830 1122T727 1100T614 1086T512 1081Q468 1081 413 1086T303 1100T201 1123T129 1153V1450H381V1319Q403 1307 437 1301T512 1294Q550 1294 588 1299T649 1319V1450H901V1151Z"/><glyph unicode="˙" horiz-adv-x="1024" d="M711 1108H313V1440H711V1108Z"/><glyph unicode="˚" horiz-adv-x="1024" d="M805 1315Q805 1250 787 1207T733 1137T641 1099T512 1087Q437 1087 382 1098T290 1136T237 1206T219 1315Q219 1380 236 1424T290 1496T381 1536T512 1548Q587 1548 642 1536T734 1497T787 1425T805 1315ZM627 1315Q627 1349 622 1371T603 1407T568 1426T512 1432Q478 1432 456 1427T422 1408T404 1372T399 1315Q399 1282 404 1261T421 1227T456 1209T512 1204Q546 1204 568 1209T603 1226T621 1260T627 1315Z"/><glyph unicode="˛" horiz-adv-x="1024" d="M727 -221L684 -438Q610 -428 548 -410T436 -370T353 -327T301 -287L367 61L567 20L530 -166Q541 -173 562 -180T611 -195T668 -210T727 -221Z"/><glyph unicode="˜" horiz-adv-x="1024" d="M963 1262Q925 1231 886 1200T808 1142T731 1100T657 1083Q623 1083 581 1098T498 1132T421 1166T367 1182Q339 1182 297 1150T199 1073L55 1251Q92 1282 131 1313T210 1369T287 1411T358 1427Q392 1427 434 1412T518 1378T595 1345T649 1329Q677 1329 719 1362T817 1440L963 1262Z"/><glyph unicode="˝" horiz-adv-x="1024" d="M987 1464L614 1061L477 1161L770 1624L987 1464ZM559 1464L186 1061L51 1161L344 1624L559 1464Z"/><glyph unicode="̄" horiz-adv-x="1024" d="M821 1116H203V1374H821V1116Z"/><glyph unicode="Δ" horiz-adv-x="1536" d="M76 0L652 1536H884L1456 0H76ZM352 148H1164L752 1256L352 148Z"/><glyph unicode="Ω" horiz-adv-x="1664" d="M832 1376Q644 1376 510 1234T376 836Q376 592 464 432T724 180V0H88V196H536Q416 240 304 406T192 848Q192 1112 358 1330T832 1548Q1140 1548 1306 1338T1472 848Q1472 572 1360 406T1128 196H1576V0H940V180Q1112 272 1200 432T1288 836Q1288 1044 1162 1210T832 1376Z"/><glyph unicode="μ" horiz-adv-x="1408" d="M252 -424Q196 -424 168 -392T140 -280Q140 -200 144 -106T156 100Q164 200 168 256T172 328Q176 348 176 356V1176H368V320Q368 228 450 176T628 124Q760 124 858 190T1008 380V1176H1200V308L1220 0H1056L1020 176Q952 68 836 14T572 -40Q520 -40 444 -14T324 60Q324 -28 352 -112T380 -264Q380 -424 252 -424Z"/><glyph unicode="π" horiz-adv-x="1408" d="M296 0V1028H12V1176H1316V1028H996V344Q996 228 1042 184T1152 140Q1200 140 1232 142T1296 156V28Q1248 4 1206 -6T1088 -16Q960 -16 886 64T812 336V1028H484V0H296Z"/><glyph unicode="–" horiz-adv-x="1106" d="M1020 463H86V696H1020V463Z"/><glyph unicode="—" horiz-adv-x="1700" d="M1614 463H86V696H1614V463Z"/><glyph unicode="‘" horiz-adv-x="760" d="M616 1022L475 950L178 1464L483 1640L616 1022Z"/><glyph unicode="’" horiz-adv-x="758" d="M580 1464L283 950L141 1022L274 1640L580 1464Z"/><glyph unicode="‚" horiz-adv-x="758" d="M580 221L283 -293L141 -221L274 397L580 221Z"/><glyph unicode="“" horiz-adv-x="1223" d="M1079 1022L940 950L643 1464L948 1640L1079 1022ZM616 1022L475 950L178 1464L483 1640L616 1022Z"/><glyph unicode="”" horiz-adv-x="1223" d="M1044 1464L748 950L606 1022L739 1640L1044 1464ZM580 1464L283 950L141 1022L274 1640L580 1464Z"/><glyph unicode="„" horiz-adv-x="1223" d="M1044 221L748 -293L606 -221L739 397L1044 221ZM580 221L283 -293L141 -221L274 397L580 221Z"/><glyph unicode="†" horiz-adv-x="1110" d="M1034 829H674V-276H436V829H76V1051H436V1278H281V1499H829V1278H674V1051H1034V829Z"/><glyph unicode="‡" horiz-adv-x="1110" d="M1034 174H674V-53H829V-274H281V-53H436V174H76V395H436V829H76V1051H436V1278H281V1499H829V1278H674V1051H1034V829H674V395H1034V174Z"/><glyph unicode="•" horiz-adv-x="1057" d="M920 582Q920 457 894 377T819 250T697 186T530 168Q437 168 364 186T240 252T164 380T137 586Q137 711 162 791T237 918T359 981T526 999Q620 999 693 981T816 915T893 788T920 582Z"/><glyph unicode="…" horiz-adv-x="2109" d="M1954 0H1563V328H1954V0ZM1251 0H858V328H1251V0ZM547 0H156V328H547V0Z"/><glyph unicode="‰" horiz-adv-x="3346" d="M2288 471Q2288 320 2258 224T2171 72T2029 -4T1837 -25Q1729 -25 1647 -5T1508 69T1422 219T1393 467Q1393 617 1422 713T1509 864T1649 940T1841 961Q1949 961 2032 941T2173 867T2259 717T2288 471ZM961 1032Q961 881 932 785T845 633T704 558T512 537Q404 537 321 557T182 631T97 781T68 1028Q68 1179 97 1275T184 1427T324 1503T516 1524Q624 1524 707 1504T847 1430T932 1279T961 1032ZM3279 471Q3279 320 3250 224T3163 72T3022 -4T2830 -25Q2722 -25 2639 -5T2500 69T2415 219T2386 467Q2386 617 2415 713T2502 864T2642 940T2834 961Q2942 961 3025 941T3165 867T3250 717T3279 471ZM1569 1454L1020 -49L782 39L1331 1540L1569 1454ZM2013 422V510Q2013 585 2004 633T1974 708T1920 747T1837 758Q1789 758 1756 748T1703 711T1674 637T1665 514V426Q1665 351 1674 303T1705 226T1759 186T1841 174Q1890 174 1923 185T1976 223T2004 299T2013 422ZM3006 422V510Q3006 585 2997 633T2966 708T2912 747T2830 758Q2782 758 2749 748T2696 711T2667 637T2658 514V426Q2658 351 2667 303T2698 226T2752 186T2834 174Q2882 174 2915 185T2968 223T2997 299T3006 422ZM688 985V1071Q688 1146 679 1194T648 1269T594 1308T512 1319Q464 1319 431 1309T378 1272T349 1198T340 1075V989Q340 915 349 866T380 789T434 749T516 737Q564 737 597 748T650 786T679 862T688 985Z"/><glyph unicode="‹" horiz-adv-x="791" d="M629 63L430 -39L127 469L430 981L629 879L403 469L629 63Z"/><glyph unicode="›" horiz-adv-x="791" d="M664 469L360 -39L162 63L387 469L162 879L360 981L664 469Z"/><glyph unicode="⁄" horiz-adv-x="788" d="M788 1454L240 -49L0 39L549 1540L788 1454Z"/><glyph unicode="€" horiz-adv-x="1470" d="M1352 47Q1323 39 1268 28T1141 6T984 -12T807 -20Q684 -20 581 1T398 78T264 228T184 469H57V664H164V827H57V1022H184Q210 1171 265 1267T401 1420T585 1499T811 1522Q898 1522 982 1515T1139 1497T1267 1474T1352 1452V1081H1051V1245Q1035 1248 1009 1252T950 1260T881 1267T807 1270Q732 1270 678 1256T587 1212T527 1135T494 1022H874V827H481V664H874V469H498Q510 407 533 362T593 286T684 242T811 227Q899 227 957 234T1051 250V453H1352V47Z"/><glyph unicode="℗" horiz-adv-x="1839" d="M1753 750Q1753 596 1734 479T1672 276T1564 132T1406 39T1192 -10T920 -25Q769 -25 649 -11T435 39T276 132T168 276T106 479T86 750Q86 903 106 1020T168 1224T276 1368T435 1461T648 1511T920 1526Q1071 1526 1192 1511T1405 1461T1564 1368T1672 1224T1733 1021T1753 750ZM1573 752Q1573 891 1558 991T1509 1159T1423 1269T1299 1332T1132 1361T920 1368Q803 1368 709 1361T543 1332T418 1269T333 1160T284 991T268 752Q268 613 283 513T332 344T418 234T542 170T709 140T920 133Q1038 133 1132 140T1298 169T1423 233T1508 344T1557 513T1573 752ZM1393 909Q1393 825 1370 771T1303 684T1195 639T1049 625H842V475H963V295H520V475H600V1034H520V1214H1049Q1133 1214 1197 1201T1305 1155T1371 1062T1393 909ZM1135 909Q1135 956 1129 981T1110 1019T1078 1033T1030 1036H842V772H1020Q1051 772 1073 776T1109 794T1129 835T1135 909Z"/><glyph unicode="™" horiz-adv-x="2320" d="M2243 594H1823V754H1935V1323Q1933 1314 1928 1297T1915 1261T1901 1225T1890 1198L1729 823H1550L1386 1208Q1382 1217 1377 1234T1365 1268T1354 1301T1348 1325V754H1460V594H1075V760H1184V1333H1075V1499H1485L1636 1126Q1646 1103 1652 1081T1661 1040Q1664 1059 1672 1081T1688 1124L1835 1499H2243V1333H2134V760H2243V594ZM1018 1130H819V1352H655V760H764V594H332V760H440V1352H276V1130H78V1499H1018V1130Z"/><glyph unicode="Ω" horiz-adv-x="1664" d="M832 1376Q644 1376 510 1234T376 836Q376 592 464 432T724 180V0H88V196H536Q416 240 304 406T192 848Q192 1112 358 1330T832 1548Q1140 1548 1306 1338T1472 848Q1472 572 1360 406T1128 196H1576V0H940V180Q1112 272 1200 432T1288 836Q1288 1044 1162 1210T832 1376Z"/><glyph unicode="∂" horiz-adv-x="1280" d="M476 -32Q276 -32 166 80T56 360Q56 580 214 750T604 920Q700 920 802 886T964 816Q976 900 976 984Q976 1172 908 1278T720 1384Q592 1384 518 1356T368 1280L324 1444Q400 1488 492 1518T720 1548Q956 1548 1064 1394T1172 968Q1172 552 968 260T476 -32ZM488 128Q660 128 774 268T944 684Q912 716 824 748T648 780Q456 780 360 654T264 372Q264 264 318 196T488 128Z"/><glyph unicode="∆" horiz-adv-x="1536" d="M76 0L652 1536H884L1456 0H76ZM352 148H1164L752 1256L352 148Z"/><glyph unicode="∏" horiz-adv-x="1536" d="M332 0V1348H80V1524H1456V1348H1212V0H1004V1356H540V0H332Z"/><glyph unicode="∑" horiz-adv-x="1152" d="M1084 1524V1344H332L796 784L304 188H1080V0H40V172L560 788L68 1380V1524H1084Z"/><glyph unicode="−" horiz-adv-x="1536" d="M200 692V888H1336V692H200Z"/><glyph unicode="∕" horiz-adv-x="788" d="M788 1454L240 -49L0 39L549 1540L788 1454Z"/><glyph unicode="∙" horiz-adv-x="698" d="M543 567H156V891H543V567Z"/><glyph unicode="√" horiz-adv-x="1505" d="M1411 1434L786 -8H469L209 584H55V793L399 795L633 244L1169 1528L1411 1434Z"/><glyph unicode="∞" horiz-adv-x="1536" d="M1072 396Q924 396 840 480Q800 524 768 588Q732 536 688 496Q580 396 440 396Q284 396 190 508T96 808Q96 984 208 1100T468 1216T704 1132Q748 1096 780 1028Q816 1088 860 1128Q956 1216 1100 1216Q1248 1216 1346 1112T1444 820Q1444 640 1340 518T1072 396ZM612 984Q556 1048 472 1048Q376 1048 316 982T256 792Q256 668 302 610T448 552Q540 552 608 624Q664 684 700 808Q664 932 612 984ZM920 608Q984 556 1072 556Q1156 556 1218 626T1280 816Q1280 916 1234 988T1080 1060Q972 1060 920 968Q880 896 848 804Q860 652 920 608Z"/><glyph unicode="∫" horiz-adv-x="1152" d="M-8 -392L56 -260Q80 -268 104 -274T164 -280Q212 -280 242 -246T288 -112L516 1224Q544 1384 636 1464T880 1544Q972 1544 1042 1522T1152 1476L1088 1304Q1044 1332 988 1356T868 1380Q776 1380 730 1322T672 1188L448 -224Q428 -332 350 -382T176 -432Q116 -432 66 -420T-8 -392Z"/><glyph unicode="≈" horiz-adv-x="1536" d="M236 400Q228 444 228 480Q228 580 288 652T476 724Q576 724 650 696T788 642T912 598T1020 580Q1096 580 1128 610T1160 684Q1160 700 1156 716H1300Q1308 672 1308 636Q1308 536 1248 464T1060 392Q960 392 886 418T748 470T624 512T516 528Q440 528 408 500T376 432Q376 416 380 400H236ZM236 860Q228 904 228 940Q228 1040 288 1112T476 1184Q576 1184 650 1156T788 1102T912 1058T1020 1040Q1096 1040 1128 1070T1160 1144Q1160 1160 1156 1176H1300Q1308 1132 1308 1096Q1308 996 1248 924T1060 852Q960 852 886 878T748 930T624 972T516 988Q440 988 408 960T376 892Q376 876 380 860H236Z"/><glyph unicode="≠" horiz-adv-x="1536" d="M212 976V1176H900L996 1356H1168L1072 1176H1328V976H964L768 604H1328V404H660L548 188H372L488 404H212V604H592L792 976H212Z"/><glyph unicode="≤" horiz-adv-x="1536" d="M1348 236L208 708V872L1348 1344V1128L448 792L1348 452V236ZM212 24V216H1348V24H212Z"/><glyph unicode="≥" horiz-adv-x="1536" d="M212 236V452L1112 792L212 1128V1344L1352 872V708L212 236ZM212 24V216H1348V24H212Z"/><glyph unicode="◊" horiz-adv-x="1152" d="M472 -48L68 756L472 1560H656L1084 756L656 -48H472ZM556 152L876 768L572 1356L252 740L556 152Z"/><glyph unicode="" horiz-adv-x="1569" d="M1499 0H1128V184Q1128 281 1116 344T1073 444T993 498T866 520V315H715V520Q637 518 586 504T505 454T462 354T449 188V0H70V135H291V197Q291 333 321 421T407 561T541 637T715 666V819H203V1217H354V954H715V1092H600V1485H981V1092H866V954H1214V1217H1366V819H866V666Q961 661 1038 640T1171 567T1256 427T1286 201V135H1499V0Z"/><glyph unicode="ﬀ" horiz-adv-x="1534" d="M1483 1325Q1397 1305 1348 1289T1275 1251T1245 1200T1239 1124V977H1452V741H1239V231H1452V0H825V231H936V743H539V231H649V0H76V231H236V741H76V977H236V1133Q236 1192 242 1239T268 1323T320 1389T408 1443T538 1489T721 1532L782 1292Q696 1272 648 1256T575 1218T545 1168T539 1092V977H936V1165Q936 1224 943 1271T968 1355T1021 1422T1108 1476T1239 1522T1421 1565L1483 1325Z"/><glyph unicode="ﬁ" horiz-adv-x="1427" d="M1380 0H825V231H936V743H539V231H649V0H76V231H236V741H76V977H236V1151Q236 1211 247 1257T286 1339T364 1404T491 1459T676 1510T930 1565L983 1323Q879 1300 806 1283T684 1251T606 1222T562 1192T543 1157T539 1110V977H1239V231H1380V0Z"/><glyph unicode="ﬂ" horiz-adv-x="1427" d="M758 1313Q680 1295 636 1279T569 1241T542 1189T537 1112V977H705V741H537V231H647V0H76V231H233V741H76V977H233V1153Q233 1212 239 1259T264 1344T315 1412T399 1466T524 1511T696 1552L758 1313ZM1378 0H823V231H934V1325H848V1559H1237V231H1378V0Z"/><glyph unicode="ﬃ" horiz-adv-x="2128" d="M2079 0H1526V231H1634V743H1237V231H1350V0H825V231H934V743H537V231H649V0H76V231H233V741H76V977H233V1133Q233 1192 239 1239T265 1323T318 1389T406 1443T537 1489T721 1532L782 1292Q695 1272 646 1256T573 1218T543 1168T537 1092V977H934V1151Q934 1211 945 1257T985 1339T1063 1404T1190 1459T1375 1510T1628 1565L1681 1323Q1578 1300 1506 1283T1384 1251T1305 1222T1261 1192T1242 1157T1237 1110V977H1937V231H2079V0Z"/><glyph unicode="ﬄ" horiz-adv-x="2128" d="M1458 1325Q1380 1307 1336 1291T1269 1253T1242 1201T1237 1124V977H1405V741H1237V231H1350V0H825V231H934V743H537V231H649V0H76V231H233V741H76V977H233V1133Q233 1192 239 1239T265 1323T318 1389T406 1443T537 1489T721 1532L782 1292Q695 1272 646 1256T573 1218T543 1168T537 1092V977H934V1165Q934 1254 950 1316T1016 1424T1157 1502T1397 1565L1458 1325ZM2079 0H1526V231H1634V1321H1548V1559H1937V231H2079V0Z"/></font>
</defs>
</svg>
