<?xml version="1.0" encoding="UTF-8"?><svg xmlns="http://www.w3.org/2000/svg" width="100%" height="100%"><defs><font id="web" horiz-adv-x="1431"><!--



NOTICE: This font software is the valuable property 
of Webtype LLC, The Font Bureau, Webtype and/or its 
suppliers and its use by you is covered under the terms 
of the Web Font license agreement between you and Webtype 
LLC. You may ONLY use this font software with the licensed 
web site. Except as specifically permitted by the license, 
you may not copy this font software. If you have any 
questions, please contact Webtype.com. 

For more information, please visit http://www.webtype.com/store/license/?id=23

Licensed to: sanfranciscochronicle.com

Serial number: SH-1335
--><font-face font-family="" units-per-em="2048" panose-1="2 0 5 5 0 0 0 2 0 4" ascent="2220" descent="-766" alphabetic="0"/><missing-glyph horiz-adv-x="1024" d="M0 1434H1024V0H0V1434ZM102 102H922V1331H102V102Z"/><glyph unicode=" " horiz-adv-x="420"/><glyph unicode="!" horiz-adv-x="868" d="M203 432H662V0H203V432ZM211 1518H655L614 510H250L211 1518Z"/><glyph unicode="&quot;" horiz-adv-x="1288" d="M162 1518H584L561 752H184L162 1518ZM702 1518H1126L1102 752H727L702 1518Z"/><glyph unicode="#" horiz-adv-x="1712" d="M315 315H104V668H383L401 774H104V1126H469L545 1518H932L856 1126H993L1067 1518H1454L1380 1126H1608V774H1313L1294 668H1608V315H1227L1165 0H778L840 315H702L643 0H256L315 315ZM934 645L963 797H762L733 645H934Z"/><glyph unicode="$" horiz-adv-x="1430" d="M530 1669H903V1511Q1012 1499 1101 1473T1282 1395L1110 1096Q1046 1134 933 1160T719 1186Q601 1186 549 1161T496 1071Q496 1024 519 998T593 957T823 920Q1004 895 1093 863T1237 780T1320 656T1348 483Q1348 280 1238 164T903 13V-193H530V9Q496 9 392 30T196 86T33 170L203 451Q424 319 686 319Q787 319 846 332T934 372T963 453Q963 501 940 526T862 567T666 598Q468 621 373 655T221 741T135 869T106 1047Q106 1251 209 1364T530 1507V1669Z"/><glyph unicode="%" horiz-adv-x="2697" d="M580 514Q328 514 191 647T53 1030Q53 1275 191 1408T580 1542Q827 1542 963 1408T1100 1030Q1100 782 963 648T580 514ZM580 815Q667 815 703 870T739 1030Q739 1129 703 1181T580 1233Q492 1233 453 1182T414 1030Q414 926 452 871T580 815ZM2122 -18Q1871 -18 1734 116T1597 500Q1597 743 1734 877T2122 1012Q2370 1012 2507 877T2644 500Q2644 254 2508 118T2122 -18ZM2122 283Q2209 283 2246 338T2284 500Q2284 597 2246 648T2122 700Q2035 700 1997 650T1958 500Q1958 393 1996 338T2122 283ZM1585 1520H1960L1110 0H735L1585 1520Z"/><glyph unicode="&amp;" horiz-adv-x="1798" d="M692 -18Q459 -18 326 28T127 174T61 438Q61 581 133 681T368 853Q303 987 303 1106Q303 1315 428 1428T784 1542Q1235 1542 1235 1106Q1235 844 928 719Q1030 617 1122 545Q1190 670 1272 944L1612 864Q1525 549 1425 375Q1515 346 1640 346H1653V0H1624Q1472 0 1371 19T1158 89Q1054 30 941 6T692 -18ZM557 585L555 583Q459 527 459 442Q459 382 481 355T554 314T692 299Q772 299 836 314Q661 469 557 585ZM885 1106Q885 1157 865 1183T784 1210Q725 1210 706 1184T686 1106Q686 1042 734 960Q815 993 850 1028T885 1106Z"/><glyph unicode="'" horiz-adv-x="748" d="M162 1520H584L561 754H184L162 1520Z"/><glyph unicode="(" horiz-adv-x="1114" d="M610 -401Q487 -297 392 -138T244 215T190 623Q190 813 244 1009T397 1380T610 1651L905 1466Q791 1328 731 1208T638 946T606 627Q606 383 681 166T905 -217L610 -401Z"/><glyph unicode=")" horiz-adv-x="1114" d="M211 -217Q322 -83 381 37T473 302T506 623Q506 871 430 1090T211 1466L502 1651Q628 1543 723 1385T871 1034T924 627Q924 438 871 242T717 -129T502 -401L211 -217Z"/><glyph unicode="*" horiz-adv-x="1284" d="M520 756L262 571L102 860L395 983L102 1110L260 1397L520 1210L483 1520H797L760 1206L1022 1397L1182 1112L885 983L1182 858L1024 575L760 760L795 449H483L520 756Z"/><glyph unicode="+" horiz-adv-x="1507" d="M553 541H176V903H553V1276H956V903H1331V541H956V164H553V541Z"/><glyph unicode="," horiz-adv-x="657" d="M119 -166Q233 -113 261 -95T300 -58T311 0H98V442H557V133Q557 -33 531 -110T436 -242T213 -360L119 -166Z"/><glyph unicode="-" horiz-adv-x="842" d="M66 874H776V514H66V874Z"/><glyph unicode="." horiz-adv-x="657" d="M98 442H557V0H98V442Z"/><glyph unicode="/" horiz-adv-x="1260" d="M848 1518H1260L412 0H0L848 1518Z"/><glyph unicode="0" horiz-adv-x="1626" d="M815 -23Q447 -23 278 166T109 760Q109 1165 278 1353T815 1542Q1177 1542 1347 1353T1518 760Q1518 358 1349 168T815 -23ZM815 330Q966 330 1032 426T1098 760Q1098 918 1071 1006T982 1134T815 1174Q659 1174 594 1082T528 760Q528 524 595 427T815 330Z"/><glyph unicode="1" horiz-adv-x="895" d="M299 1153H57V1518H698V0H299V1153Z"/><glyph unicode="2" horiz-adv-x="1378" d="M63 315L551 700Q756 862 805 922T854 1047Q854 1108 833 1135T764 1175T627 1188Q531 1188 410 1161T215 1092L31 1403Q187 1484 323 1513T670 1542Q980 1542 1118 1431T1257 1085Q1257 940 1177 818T870 522L625 336H1270V0H63V315Z"/><glyph unicode="3" horiz-adv-x="1378" d="M670 -25Q447 -25 292 16T-8 152L180 457Q318 377 429 344T649 311Q792 311 844 347T897 481Q897 574 844 607T635 641H342V958H631Q763 958 808 984T854 1079Q854 1130 836 1153T773 1186T639 1196Q535 1196 420 1168T233 1094L27 1391Q140 1461 312 1501T680 1542Q984 1542 1118 1453T1253 1171Q1253 1024 1214 945T1079 825Q1198 790 1246 700T1294 444Q1294 280 1226 177T1027 24T670 -25Z"/><glyph unicode="4" horiz-adv-x="1468" d="M49 573L709 1518H1141L494 596H837L922 993H1204V596H1423V274H1204V0H831V274H49V573Z"/><glyph unicode="5" horiz-adv-x="1413" d="M705 -23Q315 -23 49 154L238 459Q385 376 488 345T692 313Q811 313 857 331T929 388T954 502Q954 574 929 615T857 675T696 694Q551 694 455 651L117 752L158 1518H1239V1171H500L489 973Q597 1026 801 1026Q977 1026 1077 996T1238 907T1330 750T1362 516Q1362 323 1299 205T1101 32T705 -23Z"/><glyph unicode="6" horiz-adv-x="1534" d="M805 -23Q445 -23 273 145T100 678Q100 947 149 1099T304 1342T592 1475T1071 1518H1253V1171H1059Q917 1171 821 1159T663 1126T569 1077T522 1017T505 951T500 883Q551 959 659 992T946 1026Q1216 1026 1338 910T1460 524Q1460 240 1298 109T805 -23ZM807 307Q903 307 958 326T1039 384T1065 510Q1065 621 1004 667T811 713Q659 713 592 664T524 510Q524 406 591 357T807 307Z"/><glyph unicode="7" horiz-adv-x="1264" d="M758 1171H10V1518H1204V1225L682 0H254L758 1171Z"/><glyph unicode="8" horiz-adv-x="1561" d="M778 -37Q436 -37 260 84T84 430Q84 595 143 691T319 829Q251 860 212 901T154 995T135 1145Q135 1542 778 1542Q1102 1542 1262 1444T1423 1145Q1423 1046 1405 993T1346 898T1237 829Q1358 788 1417 697T1477 430Q1477 201 1296 82T778 -37ZM778 268Q923 268 994 315T1065 463Q1065 564 995 611T778 659Q631 659 564 612T496 463Q496 362 565 315T778 268ZM778 936Q904 936 966 971T1028 1090Q1028 1168 967 1201T778 1235Q651 1235 591 1202T530 1090Q530 1006 591 971T778 936Z"/><glyph unicode="9" horiz-adv-x="1534" d="M305 336H502Q647 336 744 348T902 382T995 431T1041 492T1057 559T1061 627Q1011 552 902 518T614 483Q353 483 227 603T100 987Q100 1273 262 1407T756 1542Q1117 1542 1288 1374T1460 842Q1460 572 1411 419T1255 175T962 43T489 0H305V336ZM750 788Q901 788 968 837T1036 991Q1036 1096 970 1145T754 1194Q657 1194 602 1175T521 1116T496 991Q496 882 556 835T750 788Z"/><glyph unicode=":" horiz-adv-x="698" d="M119 428H578V0H119V428ZM119 1174H578V748H119V1174Z"/><glyph unicode=";" horiz-adv-x="698" d="M139 -166Q254 -112 282 -94T321 -56T332 0H119V428H578V133Q578 -25 547 -104T441 -243T233 -360L139 -166ZM119 1174H578V748H119V1174Z"/><glyph unicode="&lt;" horiz-adv-x="1507" d="M236 573V846L1194 1319V952L662 711L1194 469V98L236 573Z"/><glyph unicode="=" horiz-adv-x="1507" d="M188 639H1319V279H188V639ZM188 1163H1319V805H188V1163Z"/><glyph unicode="&gt;" horiz-adv-x="1507" d="M313 467L848 707L313 950V1319L1274 844V569L313 98V467Z"/><glyph unicode="?" horiz-adv-x="1477" d="M500 459Q486 542 486 604Q486 721 542 789T762 918Q849 951 885 971T935 1013T950 1077Q950 1121 930 1141T861 1172T731 1182Q508 1179 303 1083L133 1419Q249 1475 421 1508T764 1542Q1081 1542 1224 1440T1368 1116Q1368 961 1306 870T1087 721Q986 681 953 662T906 616T891 541L895 459H500ZM467 381H926V0H467V381Z"/><glyph unicode="@" horiz-adv-x="2154" d="M1120 -338Q756 -338 539 -238T221 68T119 594Q119 1544 1073 1544Q1406 1544 1619 1437T1934 1118T2036 596Q2036 376 1998 264T1872 104T1608 55Q1470 55 1392 85T1286 184Q1238 124 1153 99T934 74Q715 74 605 202T494 608Q494 879 610 1009T954 1139Q1086 1139 1160 1120T1280 1049L1350 1118L1585 1096V381Q1587 304 1612 277T1698 250Q1751 250 1776 271T1812 346T1823 596Q1823 857 1744 1020T1504 1261T1073 1339Q691 1339 512 1156T332 594Q332 341 416 180T668 -57T1118 -133Q1249 -133 1392 -104T1642 -23L1731 -207Q1606 -269 1449 -303T1120 -338ZM1028 375Q1131 375 1180 430T1229 608Q1229 730 1184 774T1028 819Q938 819 896 771T854 608Q854 487 897 431T1028 375Z"/><glyph unicode="A" horiz-adv-x="1681" d="M623 1528H1055L1667 0H1227L1151 197H504L428 0H14L623 1528ZM1016 545L827 1028L639 545H1016Z"/><glyph unicode="B" horiz-adv-x="1599" d="M139 1518H866Q1202 1518 1345 1425T1489 1114Q1489 981 1442 903T1298 786Q1422 756 1476 674T1530 416Q1530 262 1466 172T1267 41T866 0H139V1518ZM920 326Q1018 326 1059 358T1100 461Q1100 532 1059 564T920 596H555V326H920ZM881 920Q973 920 1016 948T1059 1049Q1059 1120 1017 1149T881 1178H555V920H881Z"/><glyph unicode="C" horiz-adv-x="1593" d="M856 -23Q445 -23 252 163T59 760Q59 1542 883 1542Q1097 1542 1244 1488T1511 1307L1219 1014Q1138 1095 1061 1124T881 1153Q678 1153 583 1058T487 754Q487 605 527 522T653 398T883 356Q958 356 1017 370T1125 413T1243 506L1522 233Q1389 92 1233 35T856 -23Z"/><glyph unicode="D" horiz-adv-x="1645" d="M139 1518H709Q1062 1518 1243 1445T1505 1209T1587 760Q1587 474 1504 311T1238 74T709 0H139V1518ZM733 369Q904 369 994 400T1121 504T1159 760Q1159 906 1139 970T1072 1069T941 1120T713 1137H563V369H733Z"/><glyph unicode="E" horiz-adv-x="1458" d="M139 1518H1348V1135H563V950H1327V580H563V367H1356V0H139V1518Z"/><glyph unicode="F" horiz-adv-x="1389" d="M139 1518H1307V1135H563V909H1286V532H563V0H139V1518Z"/><glyph unicode="G" horiz-adv-x="1659" d="M850 -23Q563 -23 390 55T138 297T59 760Q59 1153 262 1347T881 1542Q1095 1542 1255 1487T1528 1313L1235 1020Q1157 1098 1075 1125T879 1153Q674 1153 579 1061T483 756Q483 578 519 495T640 373T872 334Q1054 334 1127 382T1200 539V563H815V905H1610V623Q1610 388 1533 249T1291 44T850 -23Z"/><glyph unicode="H" horiz-adv-x="1710" d="M139 1518H563V973H1145V1518H1571V0H1145V575H563V0H139V1518Z"/><glyph unicode="I" horiz-adv-x="752" d="M164 1518H588V0H164V1518Z"/><glyph unicode="J" horiz-adv-x="989" d="M295 -6Q121 -6 37 0V367H242Q351 367 393 400T436 522V1518H860V506Q860 326 799 214T620 48T295 -6Z"/><glyph unicode="K" horiz-adv-x="1614" d="M139 1518H557V921L1034 1518H1501L1003 914L1575 0H1094L729 582L557 373V0H139V1518Z"/><glyph unicode="L" horiz-adv-x="1294" d="M139 1518H563V367H1278V0H139V1518Z"/><glyph unicode="M" horiz-adv-x="2071" d="M139 1518H694L1034 614L1376 1518H1929V0H1516V881L1176 0H858L522 874V0H139V1518Z"/><glyph unicode="N" horiz-adv-x="1731" d="M139 1518H594L1186 715V1518H1591V0H1200L545 887V0H139V1518Z"/><glyph unicode="O" horiz-adv-x="1767" d="M883 -25Q467 -25 263 172T59 760Q59 1149 263 1345T883 1542Q1708 1542 1708 760Q1708 -25 883 -25ZM883 348Q1084 348 1181 442T1278 752Q1278 963 1183 1058T883 1153Q679 1153 583 1058T487 752Q487 537 584 443T883 348Z"/><glyph unicode="P" horiz-adv-x="1612" d="M139 1518H901Q1129 1518 1273 1461T1485 1289T1554 981Q1554 777 1481 655T1258 473T877 414H553V0H139V1518ZM895 764Q1023 764 1075 807T1128 958Q1128 1071 1078 1114T893 1157H553V764H895Z"/><glyph unicode="Q" horiz-adv-x="1767" d="M1133 -424Q931 -424 822 -390T664 -279T616 -48L618 20Q59 119 59 760Q59 1149 263 1345T883 1542Q1708 1542 1708 760Q1708 580 1665 445T1536 216T1318 68T988 1Q988 -50 1011 -65T1130 -80H1343V-418Q1253 -424 1133 -424ZM883 348Q1084 348 1181 442T1278 752Q1278 963 1183 1058T883 1153Q679 1153 583 1058T487 752Q487 537 584 443T883 348Z"/><glyph unicode="R" horiz-adv-x="1636" d="M139 1518H909Q1126 1518 1267 1466T1476 1303T1544 995Q1544 798 1470 682T1251 511L1528 0H1073L828 455H553V0H139V1518ZM895 807Q1024 807 1070 843T1116 979Q1116 1085 1070 1121T893 1157H553V807H895Z"/><glyph unicode="S" horiz-adv-x="1559" d="M786 -23Q540 -23 338 34T14 188L227 494Q342 415 481 372T774 328Q882 328 943 335T1033 359T1068 398T1075 453Q1075 499 1018 523T760 573Q482 608 355 662T169 809T111 1057Q111 1316 266 1429T784 1542Q1204 1542 1444 1386L1214 1057Q1141 1105 1015 1139T780 1174Q683 1174 630 1165T555 1136T532 1067Q532 1033 555 1012T630 978T868 940Q1077 914 1189 879T1365 791T1462 661T1495 473Q1495 292 1422 187T1192 29T786 -23Z"/><glyph unicode="T" horiz-adv-x="1464" d="M520 1135H16V1518H1450V1135H946V0H520V1135Z"/><glyph unicode="U" horiz-adv-x="1710" d="M856 -31Q681 -31 558 -4T352 72T221 190T150 349T127 596V1518H553V653Q553 519 581 460T675 372T862 344Q983 344 1049 371T1143 459T1171 653V1518H1583V596Q1583 440 1561 351T1490 191T1359 72T1153 -3T856 -31Z"/><glyph unicode="V" horiz-adv-x="1661" d="M14 1518H461L836 516L1208 1518H1647L1044 -10H612L14 1518Z"/><glyph unicode="W" horiz-adv-x="2216" d="M23 1518H465L688 686L928 1518H1313L1554 686L1778 1518H2193L1745 -10H1368L1108 881L848 -10H471L23 1518Z"/><glyph unicode="X" horiz-adv-x="1675" d="M100 1518H580L853 1124L1106 1518H1577L1074 806L1634 0H1153L819 481L510 0H39L599 799L100 1518Z"/><glyph unicode="Y" horiz-adv-x="1620" d="M-4 1518H451L817 883L1184 1518H1622L1020 501V0H596V505L-4 1518Z"/><glyph unicode="Z" horiz-adv-x="1446" d="M51 313L825 1135H86V1518H1366V1171L606 367H1389V0H51V313Z"/><glyph unicode="[" horiz-adv-x="1114" d="M209 1589H950V1241H621V0H956V-338H209V1589Z"/><glyph unicode="\" horiz-adv-x="1260" d="M0 1518H412L1260 0H848L0 1518Z"/><glyph unicode="]" horiz-adv-x="1114" d="M156 0H492V1241H164V1589H903V-338H156V0Z"/><glyph unicode="^" horiz-adv-x="1208" d="M397 1482H811L1130 1076H756L600 1230L444 1076H78L397 1482Z"/><glyph unicode="_" horiz-adv-x="928" d="M-76 -61H1004V-360H-76V-61Z"/><glyph unicode="`" horiz-adv-x="1208" d="M78 1686H563L842 1280H487L78 1686Z"/><glyph unicode="a" horiz-adv-x="1348" d="M487 -18Q325 -18 225 21T78 138T31 352Q31 502 99 587T313 710T770 748H807Q804 795 787 812T730 837T616 846Q530 846 442 822T283 752L80 1049Q179 1115 342 1157T662 1200Q869 1200 982 1158T1146 1023T1196 737V424Q1196 362 1212 348T1288 334V4Q1246 -6 1116 -6Q1010 -6 960 19T877 100Q833 46 736 14T487 -18ZM416 387Q416 343 450 325T571 307Q693 307 750 343T807 465V504H797Q682 504 611 500T497 485T435 455T416 387Z"/><glyph unicode="b" horiz-adv-x="1432" d="M844 -18Q567 -18 461 88L381 -14L113 14V1589H516V1110Q616 1200 868 1200Q1122 1200 1248 1052T1374 590Q1374 284 1244 133T844 -18ZM762 324Q834 324 878 350T942 428T963 573Q963 674 943 725T879 804T762 831Q635 831 577 772T518 573Q518 473 542 423T619 349T762 324Z"/><glyph unicode="c" horiz-adv-x="1227" d="M678 -18Q471 -18 334 44T127 238T57 590Q57 814 129 946T344 1139T698 1200Q1028 1200 1200 997L915 729Q858 789 810 809T696 829Q576 829 522 774T467 578Q467 435 522 380T700 324Q773 324 825 347T940 430L1198 184Q1073 66 962 24T678 -18Z"/><glyph unicode="d" horiz-adv-x="1432" d="M569 -23Q57 -23 57 594Q57 1200 584 1200Q809 1200 911 1110V1589H1319V14L1008 -14L967 92Q842 -23 569 -23ZM670 326Q791 326 851 387T911 594Q911 694 888 742T813 813T670 836Q598 836 554 811T490 738T469 594Q469 491 489 438T554 355T670 326Z"/><glyph unicode="e" horiz-adv-x="1294" d="M692 -23Q367 -23 212 123T57 590Q57 808 128 940T340 1136T692 1200Q965 1200 1096 1072T1236 649L1237 560L1235 449H450Q467 373 524 338T692 303Q806 303 894 327T1055 406L1257 145Q1140 54 1011 16T692 -23ZM866 688Q862 764 844 797T787 847T680 864Q572 864 517 825T448 698L446 688H866Z"/><glyph unicode="f" horiz-adv-x="971" d="M45 1174H266V1196Q266 1362 316 1455T472 1593T758 1638Q860 1638 894 1635L926 1632V1303H813Q730 1303 701 1281T672 1198V1174H926V829H672V0H266V829H45V1174Z"/><glyph unicode="g" horiz-adv-x="1393" d="M666 432Q600 432 541 436L539 414Q539 388 553 379T605 366T705 362Q960 362 1092 333T1278 238T1333 31Q1333 -178 1178 -272T664 -367Q377 -367 253 -342T74 -258T20 -84Q20 16 83 81T258 172Q178 238 178 348Q178 446 239 513Q159 562 123 632T86 801Q86 1004 229 1102T666 1200H702L1286 1333V1028H1131L1148 1018Q1249 956 1249 801Q1249 609 1112 521T666 432ZM680 -111Q807 -111 862 -87T918 -2Q918 49 866 66T680 84Q575 84 524 77T452 53T430 -10Q430 -54 454 -73T534 -102T680 -111ZM666 659Q765 659 807 684T850 778Q850 827 833 850T776 885T666 897Q567 897 525 872T483 778Q483 712 524 686T666 659Z"/><glyph unicode="h" horiz-adv-x="1407" d="M113 1589H516V1110Q567 1152 663 1176T881 1200Q1031 1200 1122 1150T1257 997T1300 709V0H895V625Q895 708 879 744T827 800T729 819Q650 819 605 800T539 740T518 618V0H113V1589Z"/><glyph unicode="i" horiz-adv-x="657" d="M125 1174H530V0H125V1174ZM123 1589H532V1260H123V1589Z"/><glyph unicode="j" horiz-adv-x="657" d="M8 -43H39Q79 -43 96 -34T119 0T125 92V1174H530V94Q530 -91 492 -181T363 -309T84 -348H8V-43ZM123 1589H532V1260H123V1589Z"/><glyph unicode="k" horiz-adv-x="1305" d="M113 1589H514V777L831 1174H1274L891 699L1305 0H854L618 390L514 266V0H113V1589Z"/><glyph unicode="l" horiz-adv-x="750" d="M485 -4Q349 -4 275 36T163 162T125 391V1589H530V442Q530 379 551 359T635 338H670V4Q622 -4 485 -4Z"/><glyph unicode="m" horiz-adv-x="2140" d="M113 1151L428 1176L461 1075Q501 1129 601 1164T868 1200Q966 1200 1028 1189T1128 1156T1204 1075Q1261 1141 1366 1170T1626 1200Q1774 1200 1863 1151T1993 1001T2034 709V0H1626V625Q1626 719 1612 752T1566 802T1475 819Q1399 819 1356 801T1295 746T1276 618V0H870V625Q870 719 856 751T810 801T717 819Q641 819 598 801T537 746T518 618V0H113V1151Z"/><glyph unicode="n" horiz-adv-x="1407" d="M113 1151L428 1176L461 1071Q580 1200 881 1200Q1031 1200 1122 1150T1257 997T1300 709V0H895V625Q895 708 879 744T827 800T729 819Q650 819 605 800T539 740T518 618V0H113V1151Z"/><glyph unicode="o" horiz-adv-x="1386" d="M694 -23Q371 -23 214 127T57 590Q57 902 214 1051T694 1200Q1018 1200 1173 1052T1329 590Q1329 276 1174 127T694 -23ZM694 324Q813 324 867 381T922 578Q922 717 867 774T694 831Q612 831 562 804T490 726T467 578Q467 437 522 381T694 324Z"/><glyph unicode="p" horiz-adv-x="1432" d="M113 1151L428 1176L459 1081Q528 1144 628 1172T870 1200Q1123 1200 1248 1053T1374 590Q1374 277 1241 130T846 -18Q613 -18 518 72V-338H113V1151ZM762 324Q834 324 878 350T942 428T963 573Q963 674 943 725T879 804T762 831Q635 831 577 772T518 573Q518 473 542 423T619 349T762 324Z"/><glyph unicode="q" horiz-adv-x="1432" d="M911 61Q857 15 775 -4T569 -23Q316 -23 187 127T57 592Q57 1200 584 1200Q855 1200 969 1096L1049 1176L1319 1151V-338H911V61ZM670 326Q791 326 851 387T911 592Q911 693 888 741T814 813T670 836Q566 836 518 782T469 592Q469 490 490 437T555 355T670 326Z"/><glyph unicode="r" horiz-adv-x="874" d="M113 1151L428 1176L469 1053Q510 1109 612 1146T829 1188V797Q710 796 643 774T547 705T518 555V0H113V1151Z"/><glyph unicode="s" horiz-adv-x="1227" d="M596 -18Q426 -18 272 20T0 139L199 418Q281 363 398 328T621 293Q690 293 722 297T769 312T784 348Q784 375 753 387T627 410Q448 424 352 450T198 522T110 640T80 811Q80 1013 212 1106T627 1200Q786 1200 923 1172T1155 1090L973 791Q903 825 808 844T641 864Q557 864 521 854T485 809Q485 789 497 779T545 762T629 750Q807 731 881 715T1010 673T1102 608T1160 513T1180 377Q1180 229 1122 145T936 22T596 -18Z"/><glyph unicode="t" horiz-adv-x="977" d="M45 1174H254L319 1425L633 1493V1174H889V829H633V459Q633 404 645 382T687 349T772 338H889V0Q796 -6 684 -6Q512 -6 415 32T273 156T229 397V829H45V1174Z"/><glyph unicode="u" horiz-adv-x="1389" d="M694 -23Q467 -23 342 35T162 222T106 582V1174H512V573Q512 458 529 416T586 354T698 334Q770 334 809 355T865 417T883 573V1174H1282V582Q1282 346 1226 219T1045 34T694 -23Z"/><glyph unicode="v" horiz-adv-x="1327" d="M-14 1174H424L676 473L930 1174H1341L874 -12H451L-14 1174Z"/><glyph unicode="w" horiz-adv-x="1931" d="M12 1174H440L596 573L774 1174H1176L1354 575L1509 1174H1919L1556 -12H1167L965 637L764 -12H375L12 1174Z"/><glyph unicode="x" horiz-adv-x="1288" d="M35 1174H489L665 916L827 1174H1255L872 613L1292 0H838L622 315L422 0H-6L417 615L35 1174Z"/><glyph unicode="y" horiz-adv-x="1253" d="M-14 1174H424L644 548L856 1174H1268L815 -18Q764 -157 702 -224T542 -320T283 -350L158 -346V-43H244Q321 -43 353 -38T402 -19T428 33L-14 1174Z"/><glyph unicode="z" horiz-adv-x="1147" d="M27 268L553 829H59V1174H1102V903L573 324H1124V0H27V268Z"/><glyph unicode="{" horiz-adv-x="1190" d="M721 -338Q500 -338 395 -263T289 -37Q289 37 338 184Q387 331 387 375Q387 413 368 430T304 454T125 461V791Q266 791 308 798T369 823T387 877Q387 908 372 959T338 1067T305 1183T289 1288Q289 1439 394 1514T721 1589H1032V1241H821Q756 1241 733 1227T709 1171Q709 1153 722 1111T752 1015T781 906T795 803Q795 736 756 691T645 627Q718 607 756 562T795 449Q795 403 782 345T752 232T723 133T709 70Q709 28 733 14T821 0H1032V-338H721Z"/><glyph unicode="|" horiz-adv-x="831" d="M209 1589H621V-338H209V1589Z"/><glyph unicode="}" horiz-adv-x="1190" d="M158 0H369Q434 0 457 14T481 70Q481 88 468 132T438 232T409 345T395 449Q395 515 433 560T545 627Q472 646 434 691T395 803Q395 849 408 905T438 1015T467 1110T481 1171Q481 1214 456 1227T369 1241H158V1589H469Q690 1589 795 1514T901 1288Q901 1241 886 1183T852 1068T819 959T803 877Q803 839 822 822T886 798T1065 791V461Q924 461 882 454T821 429T803 375Q803 331 852 184Q901 37 901 -37Q901 -188 796 -263T469 -338H158V0Z"/><glyph unicode="~" horiz-adv-x="1208" d="M61 874Q270 1130 455 1130Q509 1130 547 1112T616 1073T675 1033T737 1015Q813 1015 915 1140L1137 958Q929 702 743 702Q658 702 585 761Q547 791 519 805T463 819Q386 819 283 692L61 874Z"/><glyph unicode=" " horiz-adv-x="483"/><glyph unicode="¡" horiz-adv-x="868" d="M252 1008H616L655 0H211L252 1008ZM205 1518H664V1085H205V1518Z"/><glyph unicode="¢" horiz-adv-x="1241" d="M66 590Q66 767 110 884T241 1069T466 1169L481 1173V1323H866V1176Q1065 1139 1188 999L918 741Q863 796 813 817T696 838Q576 838 518 778T459 578Q459 436 518 376T700 315Q775 315 828 338T940 418L1186 184Q1098 102 1026 64T866 6V-193H481V7Q351 29 255 99T113 290T66 590Z"/><glyph unicode="£" horiz-adv-x="1440" d="M39 922H211Q186 1031 186 1100Q186 1333 330 1438T764 1544Q1038 1544 1257 1460L1104 1122Q1042 1149 943 1166T754 1184Q690 1184 655 1171T604 1129T588 1042Q588 1026 590 1007T605 922H938V614H679Q692 540 692 489Q692 422 682 364Q788 326 883 326Q947 326 980 340T1026 388T1040 494V557H1391V477Q1391 299 1342 193T1188 38T895 -12Q792 -12 688 18T504 93Q348 0 41 0V326Q147 326 205 335T290 362T323 410T328 479Q328 524 302 614H39V922Z"/><glyph unicode="¤" horiz-adv-x="1152" d="M1056 392L940 284L740 500Q668 452 572 452Q480 452 408 500L208 284L92 392L300 608Q272 648 262 686T252 780Q252 883 300 952L92 1168L208 1276L408 1060Q480 1108 572 1108Q668 1108 740 1060L944 1276L1060 1156L852 952Q880 912 890 872T900 780Q900 684 848 608L1056 392ZM748 780Q748 860 698 910T572 960Q496 960 448 910T400 780Q400 700 450 652T572 604Q652 604 700 652T748 780Z"/><glyph unicode="¥" horiz-adv-x="1458" d="M160 379H526V459H160V686H524L12 1518H444L729 1018L1016 1518H1446L931 686H1292V459H928V379H1292V152H928V0H526V152H160V379Z"/><glyph unicode="¦" horiz-adv-x="831" d="M209 465H621V-338H209V465ZM209 1589H621V786H209V1589Z"/><glyph unicode="§" horiz-adv-x="1305" d="M356 -6Q245 -6 188 0V311H303Q356 311 384 318T427 341T444 405L419 411Q135 475 135 745Q135 1021 419 1088L444 1094Q446 1260 497 1347T654 1478T936 1522Q1042 1522 1072 1519L1104 1516V1186H991Q937 1186 908 1179T865 1156T848 1096Q1169 1036 1169 745Q1169 604 1092 519T849 404Q844 179 727 87T356 -6ZM651 623Q759 623 803 649T848 735Q848 797 804 821T651 846Q545 846 501 822T457 735Q457 676 500 650T651 623Z"/><glyph unicode="¨" horiz-adv-x="1208" d="M182 1597H547V1280H182V1597ZM664 1597H1028V1280H664V1597Z"/><glyph unicode="©" horiz-adv-x="1632" d="M834 289Q588 289 465 406T342 772Q342 1007 471 1130T850 1253Q983 1253 1074 1219T1237 1108L1057 928Q1019 968 971 991T848 1014Q720 1014 663 952T606 768Q606 639 665 581T850 522Q916 522 966 541T1071 614L1243 446Q1166 364 1069 327T834 289ZM817 -25Q583 -25 410 73T146 350T55 760Q55 997 150 1177T416 1450T817 1544Q1044 1544 1214 1451T1481 1178T1577 760Q1577 528 1486 350T1222 73T817 -25ZM817 115Q1111 115 1270 282T1430 760Q1430 963 1361 1107T1153 1328T817 1405Q617 1405 479 1328T272 1106T203 760Q203 449 362 282T817 115Z"/><glyph unicode="ª" horiz-adv-x="1292" d="M453 555Q281 555 196 626T111 854Q111 975 166 1044T343 1143T711 1174H739L736 1202Q731 1229 697 1241T586 1253Q513 1253 440 1232T315 1178L152 1419Q230 1471 362 1505T623 1540Q790 1540 882 1506T1014 1398T1055 1165V915Q1055 865 1069 854T1130 842V571Q1082 563 991 563Q900 563 851 590T780 674Q747 620 709 598T610 566T453 555ZM203 485H1051V201H203V485ZM424 883Q424 843 450 830T545 817Q642 817 690 847T739 946V977H731Q642 977 585 973T491 961T440 939T424 883Z"/><glyph unicode="«" horiz-adv-x="1663" d="M211 586L520 1174H872L596 586L872 0H520L211 586ZM729 586L1038 1174H1393L1116 586L1393 0H1038L729 586Z"/><glyph unicode="¬" horiz-adv-x="1536" d="M1116 352V728H212V920H1296V352H1116Z"/><glyph unicode="­" horiz-adv-x="842" d="M66 874H776V514H66V874Z"/><glyph unicode="®" horiz-adv-x="1632" d="M817 -25Q583 -25 410 73T146 350T55 760Q55 997 150 1177T416 1450T817 1544Q1044 1544 1214 1451T1481 1178T1577 760Q1577 528 1486 350T1222 73T817 -25ZM817 115Q1111 115 1270 282T1430 760Q1430 963 1361 1107T1153 1328T817 1405Q617 1405 479 1328T272 1106T203 760Q203 449 362 282T817 115ZM432 1204H881Q1018 1204 1098 1173T1214 1082T1251 897Q1251 774 1210 709T1082 612L1243 313H983L840 582H672V313H432V1204ZM872 786Q950 786 977 806T1004 889Q1004 951 979 971T870 991H672V786H872Z"/><glyph unicode="¯" horiz-adv-x="1208" d="M143 1602H1065V1280H143V1602Z"/><glyph unicode="°" horiz-adv-x="1165" d="M582 535Q421 535 305 597T127 775T66 1038Q66 1188 127 1302T304 1479T582 1542Q742 1542 859 1480T1038 1303T1100 1038Q1100 889 1038 775T859 598T582 535ZM582 825Q676 825 727 875T778 1028Q778 1229 582 1229Q387 1229 387 1028Q387 825 582 825Z"/><glyph unicode="±" horiz-adv-x="1507" d="M176 362H553V541H176V903H553V1276H956V903H1331V541H956V362H1331V0H176V362Z"/><glyph unicode="²" horiz-adv-x="1126" d="M125 696L455 958Q551 1033 591 1070T645 1132T659 1190Q659 1238 622 1257T506 1276Q444 1276 368 1258T242 1210L102 1442Q203 1495 304 1515T549 1536Q762 1536 862 1461T963 1227Q963 1155 940 1098T865 984T700 838L565 731H971V483H125V696Z"/><glyph unicode="³" horiz-adv-x="1143" d="M557 471Q412 471 301 497T76 596L231 815Q297 775 366 752T522 729Q627 729 659 751T692 829Q692 885 654 905T514 926H313V1141H510Q609 1141 636 1154T664 1208Q664 1247 637 1260T516 1274Q359 1274 233 1204L92 1434Q171 1483 293 1510T565 1538Q772 1538 873 1478T975 1286Q975 1115 836 1057Q924 1028 964 962T1004 791Q1004 626 892 549T557 471Z"/><glyph unicode="´" horiz-adv-x="1208" d="M645 1686H1130L721 1280H367L645 1686Z"/><glyph unicode="µ" horiz-adv-x="1395" d="M113 1174H518V573Q518 458 535 417T591 355T705 334Q777 334 816 355T872 419T889 573V1174H1288V582Q1288 351 1235 225T1064 40T733 -18Q578 -18 518 14V-338H113V1174Z"/><glyph unicode="¶" horiz-adv-x="1452" d="M930 434H807V0H426V469Q304 502 228 564T116 723T80 981Q80 1189 149 1301T361 1466T733 1518H1311V0H930V434ZM930 754V1167H725Q585 1167 537 1123T489 958Q489 840 540 797T723 754H930Z"/><glyph unicode="·" horiz-adv-x="657" d="M98 1016H557V561H98V1016Z"/><glyph unicode="¸" horiz-adv-x="1208" d="M596 -537Q434 -537 303 -463L399 -281Q505 -332 580 -332Q638 -332 665 -318T692 -260Q692 -195 590 -195L518 -199L449 -158L487 14H707L688 -84H710Q814 -84 859 -105T929 -169T954 -289Q954 -415 872 -476T596 -537Z"/><glyph unicode="¹" horiz-adv-x="817" d="M287 1249H121V1518H602V483H287V1249Z"/><glyph unicode="º" horiz-adv-x="1272" d="M637 551Q377 551 249 671T121 1049Q121 1302 247 1422T637 1542Q900 1542 1025 1422T1151 1049Q1151 793 1024 672T637 551ZM637 831Q730 831 775 880T821 1038Q821 1148 775 1195T637 1243Q544 1243 499 1196T453 1038Q453 930 497 881T637 831ZM182 481H1090V197H182V481Z"/><glyph unicode="»" horiz-adv-x="1663" d="M549 588L272 1174H625L934 588L625 0H272L549 588ZM1067 588L791 1174H1145L1454 588L1145 0H791L1067 588Z"/><glyph unicode="¼" horiz-adv-x="2314" d="M1819 168H1292V387L1753 1030H2093L1649 412H1825L1884 598H2116V412H2265V168H2116V0H1819V168ZM225 1249H59V1518H551V485H225V1249ZM1319 1518H1671L823 0H469L1319 1518Z"/><glyph unicode="½" horiz-adv-x="2400" d="M1452 213L1782 475Q1917 581 1943 606T1978 652T1987 698Q1987 746 1950 765T1833 784Q1765 784 1692 766T1569 719L1430 950Q1529 1001 1625 1022T1876 1044Q2089 1044 2189 969T2290 735Q2290 676 2275 629T2226 538T2140 447T1892 248H2298V0H1452V213ZM225 1249H59V1518H551V485H225V1249ZM1319 1518H1671L823 0H469L1319 1518Z"/><glyph unicode="¾" horiz-adv-x="2632" d="M553 475Q408 475 297 501T72 600L227 819Q293 779 361 756T518 733Q623 733 655 755T688 834Q688 888 652 909T510 930H309V1145H506Q604 1145 631 1158T659 1212Q659 1250 634 1264T512 1278Q355 1278 229 1208L88 1438Q167 1487 289 1514T561 1542Q768 1542 869 1482T971 1290Q971 1120 831 1061Q920 1031 959 966T999 795Q999 630 888 553T553 475ZM2134 168H1608V387L2071 1030H2410L1966 412H2142L2202 598H2433V412H2583V168H2433V0H2134V168ZM1638 1518H1991L1141 0H788L1638 1518Z"/><glyph unicode="¿" horiz-adv-x="1477" d="M713 -25Q396 -25 253 77T109 401Q109 506 136 579T220 703T389 797Q478 830 516 851T570 899T586 977L582 1059H977Q991 979 991 918Q991 801 934 732T715 602Q625 568 590 548T541 506T526 440Q526 378 577 357T745 336Q972 340 1174 434L1343 98Q1217 39 1049 7T713 -25ZM551 1518H1010V1137H551V1518Z"/><glyph unicode="À" horiz-adv-x="1681" d="M623 1528H1055L1667 0H1227L1151 197H504L428 0H14L623 1528ZM1016 545L827 1028L639 545H1016ZM314 2001H799L1078 1595H723L314 2001Z"/><glyph unicode="Á" horiz-adv-x="1681" d="M623 1528H1055L1667 0H1227L1151 197H504L428 0H14L623 1528ZM1016 545L827 1028L639 545H1016ZM881 2001H1366L957 1595H603L881 2001Z"/><glyph unicode="Â" horiz-adv-x="1681" d="M623 1528H1055L1667 0H1227L1151 197H504L428 0H14L623 1528ZM1016 545L827 1028L639 545H1016ZM633 2001H1047L1366 1595H992L836 1749L680 1595H314L633 2001Z"/><glyph unicode="Ã" horiz-adv-x="1681" d="M623 1528H1055L1667 0H1227L1151 197H504L428 0H14L623 1528ZM1016 545L827 1028L639 545H1016ZM297 1761Q506 2017 691 2017Q745 2017 783 1999T852 1960T911 1920T973 1902Q1049 1902 1151 2027L1373 1845Q1165 1589 979 1589Q894 1589 821 1648Q783 1678 755 1692T699 1706Q622 1706 519 1579L297 1761Z"/><glyph unicode="Ä" horiz-adv-x="1681" d="M623 1528H1055L1667 0H1227L1151 197H504L428 0H14L623 1528ZM1016 545L827 1028L639 545H1016ZM418 1912H783V1595H418V1912ZM900 1912H1264V1595H900V1912Z"/><glyph unicode="Å" horiz-adv-x="1681" d="M582 1427Q522 1512 522 1640Q522 1797 604 1881T840 1966Q989 1966 1072 1879T1155 1640Q1155 1515 1094 1432L1667 0H1227L1151 197H504L428 0H14L582 1427ZM1016 545L827 1028L639 545H1016ZM840 1511Q961 1511 961 1640Q961 1772 840 1772Q719 1772 719 1640Q719 1511 840 1511Z"/><glyph unicode="Æ" horiz-adv-x="2433" d="M940 1518H2322V1135H1538V950H2302V580H1538V367H2331V0H1133V217H549L399 0H-10L940 1518ZM1133 559V1151L748 559H1133Z"/><glyph unicode="Ç" horiz-adv-x="1593" d="M786 -537Q624 -537 493 -463L589 -281Q695 -332 770 -332Q828 -332 855 -318T882 -260Q882 -195 780 -195L708 -199L639 -158L677 14H897L878 -84H900Q1004 -84 1049 -105T1119 -169T1144 -289Q1144 -415 1062 -476T786 -537ZM856 -23Q445 -23 252 163T59 760Q59 1542 883 1542Q1097 1542 1244 1488T1511 1307L1219 1014Q1138 1095 1061 1124T881 1153Q678 1153 583 1058T487 754Q487 605 527 522T653 398T883 356Q958 356 1017 370T1125 413T1243 506L1522 233Q1389 92 1233 35T856 -23Z"/><glyph unicode="È" horiz-adv-x="1458" d="M139 1518H1348V1135H563V950H1327V580H563V367H1356V0H139V1518ZM203 2001H688L967 1595H612L203 2001Z"/><glyph unicode="É" horiz-adv-x="1458" d="M139 1518H1348V1135H563V950H1327V580H563V367H1356V0H139V1518ZM770 2001H1255L846 1595H492L770 2001Z"/><glyph unicode="Ê" horiz-adv-x="1458" d="M139 1518H1348V1135H563V950H1327V580H563V367H1356V0H139V1518ZM522 2001H936L1255 1595H881L725 1749L569 1595H203L522 2001Z"/><glyph unicode="Ë" horiz-adv-x="1458" d="M139 1518H1348V1135H563V950H1327V580H563V367H1356V0H139V1518ZM307 1912H672V1595H307V1912ZM789 1912H1153V1595H789V1912Z"/><glyph unicode="Ì" horiz-adv-x="752" d="M-203 2001H303L588 1595H213L-203 2001ZM164 1518H588V0H164V1518Z"/><glyph unicode="Í" horiz-adv-x="752" d="M446 2001H952L539 1595H164L446 2001ZM164 1518H588V0H164V1518Z"/><glyph unicode="Î" horiz-adv-x="752" d="M168 2001H582L881 1595H506L371 1749L236 1595H-131L168 2001ZM164 1518H588V0H164V1518Z"/><glyph unicode="Ï" horiz-adv-x="752" d="M164 1518H588V0H164V1518ZM-46 1912H319V1595H-46V1912ZM436 1912H800V1595H436V1912Z"/><glyph unicode="Ð" horiz-adv-x="1645" d="M0 924H139V1518H709Q1062 1518 1243 1445T1505 1209T1587 760Q1587 481 1501 316T1231 76T709 0H139V590H0V924ZM733 369Q904 369 994 400T1121 504T1159 760Q1159 906 1139 970T1072 1069T941 1120T713 1137H563V924H813V590H563V369H733Z"/><glyph unicode="Ñ" horiz-adv-x="1731" d="M139 1518H594L1186 715V1518H1591V0H1200L545 887V0H139V1518ZM321 1761Q530 2017 715 2017Q769 2017 807 1999T876 1960T935 1920T997 1902Q1073 1902 1175 2027L1397 1845Q1189 1589 1003 1589Q918 1589 845 1648Q807 1678 779 1692T723 1706Q646 1706 543 1579L321 1761Z"/><glyph unicode="Ò" horiz-adv-x="1767" d="M883 -25Q467 -25 263 172T59 760Q59 1149 263 1345T883 1542Q1708 1542 1708 760Q1708 -25 883 -25ZM883 348Q1084 348 1181 442T1278 752Q1278 963 1183 1058T883 1153Q679 1153 583 1058T487 752Q487 537 584 443T883 348ZM357 2001H842L1121 1595H766L357 2001Z"/><glyph unicode="Ó" horiz-adv-x="1767" d="M883 -25Q467 -25 263 172T59 760Q59 1149 263 1345T883 1542Q1708 1542 1708 760Q1708 -25 883 -25ZM883 348Q1084 348 1181 442T1278 752Q1278 963 1183 1058T883 1153Q679 1153 583 1058T487 752Q487 537 584 443T883 348ZM924 2001H1409L1000 1595H646L924 2001Z"/><glyph unicode="Ô" horiz-adv-x="1767" d="M883 -25Q467 -25 263 172T59 760Q59 1149 263 1345T883 1542Q1708 1542 1708 760Q1708 -25 883 -25ZM883 348Q1084 348 1181 442T1278 752Q1278 963 1183 1058T883 1153Q679 1153 583 1058T487 752Q487 537 584 443T883 348ZM676 2001H1090L1409 1595H1035L879 1749L723 1595H357L676 2001Z"/><glyph unicode="Õ" horiz-adv-x="1767" d="M883 -25Q467 -25 263 172T59 760Q59 1149 263 1345T883 1542Q1708 1542 1708 760Q1708 -25 883 -25ZM883 348Q1084 348 1181 442T1278 752Q1278 963 1183 1058T883 1153Q679 1153 583 1058T487 752Q487 537 584 443T883 348ZM340 1761Q549 2017 734 2017Q788 2017 826 1999T895 1960T954 1920T1016 1902Q1092 1902 1194 2027L1416 1845Q1208 1589 1022 1589Q937 1589 864 1648Q826 1678 798 1692T742 1706Q665 1706 562 1579L340 1761Z"/><glyph unicode="Ö" horiz-adv-x="1767" d="M883 -25Q467 -25 263 172T59 760Q59 1149 263 1345T883 1542Q1708 1542 1708 760Q1708 -25 883 -25ZM883 348Q1084 348 1181 442T1278 752Q1278 963 1183 1058T883 1153Q679 1153 583 1058T487 752Q487 537 584 443T883 348ZM461 1912H826V1595H461V1912ZM943 1912H1307V1595H943V1912Z"/><glyph unicode="×" horiz-adv-x="1507" d="M211 426L506 721L211 1014L461 1270L756 975L1049 1270L1296 1014L1001 721L1296 428L1049 172L756 467L457 170L211 426Z"/><glyph unicode="Ø" horiz-adv-x="1767" d="M883 -25Q730 -25 598 3L545 -84H205L327 118Q59 315 59 760Q59 1149 263 1345T883 1542Q1036 1542 1169 1513L1225 1604H1563L1439 1398Q1563 1313 1635 1155T1708 760Q1708 -25 883 -25ZM883 332Q1092 332 1193 430T1294 752Q1294 951 1212 1051L781 338Q828 332 883 332ZM883 1169Q673 1169 572 1072T471 752Q471 553 549 455L976 1164Q933 1169 883 1169Z"/><glyph unicode="Ù" horiz-adv-x="1710" d="M856 -31Q681 -31 558 -4T352 72T221 190T150 349T127 596V1518H553V653Q553 519 581 460T675 372T862 344Q983 344 1049 371T1143 459T1171 653V1518H1583V596Q1583 440 1561 351T1490 191T1359 72T1153 -3T856 -31ZM328 2001H813L1092 1595H737L328 2001Z"/><glyph unicode="Ú" horiz-adv-x="1710" d="M856 -31Q681 -31 558 -4T352 72T221 190T150 349T127 596V1518H553V653Q553 519 581 460T675 372T862 344Q983 344 1049 371T1143 459T1171 653V1518H1583V596Q1583 440 1561 351T1490 191T1359 72T1153 -3T856 -31ZM895 2001H1380L971 1595H617L895 2001Z"/><glyph unicode="Û" horiz-adv-x="1710" d="M856 -31Q681 -31 558 -4T352 72T221 190T150 349T127 596V1518H553V653Q553 519 581 460T675 372T862 344Q983 344 1049 371T1143 459T1171 653V1518H1583V596Q1583 440 1561 351T1490 191T1359 72T1153 -3T856 -31ZM647 2001H1061L1380 1595H1006L850 1749L694 1595H328L647 2001Z"/><glyph unicode="Ü" horiz-adv-x="1710" d="M856 -31Q681 -31 558 -4T352 72T221 190T150 349T127 596V1518H553V653Q553 519 581 460T675 372T862 344Q983 344 1049 371T1143 459T1171 653V1518H1583V596Q1583 440 1561 351T1490 191T1359 72T1153 -3T856 -31ZM432 1912H797V1595H432V1912ZM914 1912H1278V1595H914V1912Z"/><glyph unicode="Ý" horiz-adv-x="1620" d="M-4 1518H451L817 883L1184 1518H1622L1020 501V0H596V505L-4 1518ZM850 2001H1335L926 1595H572L850 2001Z"/><glyph unicode="Þ" horiz-adv-x="1612" d="M139 1518H553V1339H901Q1128 1339 1272 1288T1485 1124T1554 803Q1554 585 1483 467T1261 292T877 236H553V0H139V1518ZM895 586Q1028 586 1078 627T1128 780Q1128 893 1082 936T893 979H553V586H895Z"/><glyph unicode="ß" horiz-adv-x="1473" d="M113 1036Q113 1248 181 1371T386 1553T729 1612Q999 1612 1138 1504T1278 1186Q1278 1090 1260 1023T1206 912T1098 829Q1235 794 1294 751T1382 638T1411 455Q1411 261 1350 170T1145 39T737 0H621V344H723Q831 344 893 358T983 401T1012 494Q1012 559 980 586T870 625T637 637V911Q734 911 787 924T863 968T887 1073Q887 1152 847 1184T721 1217Q607 1217 561 1174T514 1022V0H113V1036Z"/><glyph unicode="à" horiz-adv-x="1348" d="M487 -18Q325 -18 225 21T78 138T31 352Q31 502 99 587T313 710T770 748H807Q804 795 787 812T730 837T616 846Q530 846 442 822T283 752L80 1049Q179 1115 342 1157T662 1200Q869 1200 982 1158T1146 1023T1196 737V424Q1196 362 1212 348T1288 334V4Q1246 -6 1116 -6Q1010 -6 960 19T877 100Q833 46 736 14T487 -18ZM416 387Q416 343 450 325T571 307Q693 307 750 343T807 465V504H797Q682 504 611 500T497 485T435 455T416 387ZM148 1686H633L912 1280H557L148 1686Z"/><glyph unicode="á" horiz-adv-x="1348" d="M487 -18Q325 -18 225 21T78 138T31 352Q31 502 99 587T313 710T770 748H807Q804 795 787 812T730 837T616 846Q530 846 442 822T283 752L80 1049Q179 1115 342 1157T662 1200Q869 1200 982 1158T1146 1023T1196 737V424Q1196 362 1212 348T1288 334V4Q1246 -6 1116 -6Q1010 -6 960 19T877 100Q833 46 736 14T487 -18ZM416 387Q416 343 450 325T571 307Q693 307 750 343T807 465V504H797Q682 504 611 500T497 485T435 455T416 387ZM715 1686H1200L791 1280H437L715 1686Z"/><glyph unicode="â" horiz-adv-x="1348" d="M487 -18Q325 -18 225 21T78 138T31 352Q31 502 99 587T313 710T770 748H807Q804 795 787 812T730 837T616 846Q530 846 442 822T283 752L80 1049Q179 1115 342 1157T662 1200Q869 1200 982 1158T1146 1023T1196 737V424Q1196 362 1212 348T1288 334V4Q1246 -6 1116 -6Q1010 -6 960 19T877 100Q833 46 736 14T487 -18ZM416 387Q416 343 450 325T571 307Q693 307 750 343T807 465V504H797Q682 504 611 500T497 485T435 455T416 387ZM467 1686H881L1200 1280H826L670 1434L514 1280H148L467 1686Z"/><glyph unicode="ã" horiz-adv-x="1348" d="M487 -18Q325 -18 225 21T78 138T31 352Q31 502 99 587T313 710T770 748H807Q804 795 787 812T730 837T616 846Q530 846 442 822T283 752L80 1049Q179 1115 342 1157T662 1200Q869 1200 982 1158T1146 1023T1196 737V424Q1196 362 1212 348T1288 334V4Q1246 -6 1116 -6Q1010 -6 960 19T877 100Q833 46 736 14T487 -18ZM416 387Q416 343 450 325T571 307Q693 307 750 343T807 465V504H797Q682 504 611 500T497 485T435 455T416 387ZM131 1446Q340 1702 525 1702Q579 1702 617 1684T686 1645T745 1605T807 1587Q883 1587 985 1712L1207 1530Q999 1274 813 1274Q728 1274 655 1333Q617 1363 589 1377T533 1391Q456 1391 353 1264L131 1446Z"/><glyph unicode="ä" horiz-adv-x="1348" d="M487 -18Q325 -18 225 21T78 138T31 352Q31 502 99 587T313 710T770 748H807Q804 795 787 812T730 837T616 846Q530 846 442 822T283 752L80 1049Q179 1115 342 1157T662 1200Q869 1200 982 1158T1146 1023T1196 737V424Q1196 362 1212 348T1288 334V4Q1246 -6 1116 -6Q1010 -6 960 19T877 100Q833 46 736 14T487 -18ZM416 387Q416 343 450 325T571 307Q693 307 750 343T807 465V504H797Q682 504 611 500T497 485T435 455T416 387ZM252 1597H617V1280H252V1597ZM734 1597H1098V1280H734V1597Z"/><glyph unicode="å" horiz-adv-x="1348" d="M487 -18Q325 -18 225 21T78 138T31 352Q31 502 99 587T313 710T770 748H807Q804 795 787 812T730 837T616 846Q530 846 442 822T283 752L80 1049Q179 1115 342 1157T662 1200Q869 1200 982 1158T1146 1023T1196 737V424Q1196 362 1212 348T1288 334V4Q1246 -6 1116 -6Q1010 -6 960 19T877 100Q833 46 736 14T487 -18ZM416 387Q416 343 450 325T571 307Q693 307 750 343T807 465V504H797Q682 504 611 500T497 485T435 455T416 387ZM674 1257Q523 1257 440 1340T357 1579Q357 1736 440 1820T674 1905Q822 1905 906 1818T990 1579Q990 1429 906 1343T674 1257ZM674 1450Q795 1450 795 1579Q795 1710 674 1710Q553 1710 553 1579Q553 1450 674 1450Z"/><glyph unicode="æ" horiz-adv-x="2030" d="M1427 -23Q1095 -23 954 127Q906 73 850 41T719 -4T487 -18Q325 -18 225 22T78 139T31 352Q31 502 99 587T313 710T770 748H807Q804 795 787 812T730 837T616 846Q530 846 442 822T283 752L80 1049Q179 1115 342 1157T662 1200Q789 1200 877 1178T1026 1108L1029 1109Q1169 1200 1427 1200Q1701 1200 1832 1072T1972 649V574L1970 449H1186Q1203 371 1260 337T1427 303Q1541 303 1629 327T1790 406L1993 145Q1874 53 1747 15T1427 -23ZM416 387Q416 343 449 325T567 307Q693 307 750 343T807 465V504H797Q682 504 611 500T497 485T435 455T416 387ZM1602 688Q1595 773 1576 802T1519 848T1415 864Q1307 864 1252 825T1183 698L1182 688H1602Z"/><glyph unicode="ç" horiz-adv-x="1227" d="M606 -537Q444 -537 313 -463L409 -281Q515 -332 590 -332Q648 -332 675 -318T702 -260Q702 -195 600 -195L528 -199L459 -158L497 14H717L698 -84H720Q824 -84 869 -105T939 -169T964 -289Q964 -415 882 -476T606 -537ZM678 -18Q471 -18 334 44T127 238T57 590Q57 814 129 946T344 1139T698 1200Q1028 1200 1200 997L915 729Q858 789 810 809T696 829Q576 829 522 774T467 578Q467 435 522 380T700 324Q773 324 825 347T940 430L1198 184Q1073 66 962 24T678 -18Z"/><glyph unicode="è" horiz-adv-x="1294" d="M692 -23Q367 -23 212 123T57 590Q57 808 128 940T340 1136T692 1200Q965 1200 1096 1072T1236 649L1237 560L1235 449H450Q467 373 524 338T692 303Q806 303 894 327T1055 406L1257 145Q1140 54 1011 16T692 -23ZM866 688Q862 764 844 797T787 847T680 864Q572 864 517 825T448 698L446 688H866ZM121 1686H606L885 1280H530L121 1686Z"/><glyph unicode="é" horiz-adv-x="1294" d="M692 -23Q367 -23 212 123T57 590Q57 808 128 940T340 1136T692 1200Q965 1200 1096 1072T1236 649L1237 560L1235 449H450Q467 373 524 338T692 303Q806 303 894 327T1055 406L1257 145Q1140 54 1011 16T692 -23ZM866 688Q862 764 844 797T787 847T680 864Q572 864 517 825T448 698L446 688H866ZM688 1686H1173L764 1280H410L688 1686Z"/><glyph unicode="ê" horiz-adv-x="1294" d="M692 -23Q367 -23 212 123T57 590Q57 808 128 940T340 1136T692 1200Q965 1200 1096 1072T1236 649L1237 560L1235 449H450Q467 373 524 338T692 303Q806 303 894 327T1055 406L1257 145Q1140 54 1011 16T692 -23ZM866 688Q862 764 844 797T787 847T680 864Q572 864 517 825T448 698L446 688H866ZM440 1686H854L1173 1280H799L643 1434L487 1280H121L440 1686Z"/><glyph unicode="ë" horiz-adv-x="1294" d="M692 -23Q367 -23 212 123T57 590Q57 808 128 940T340 1136T692 1200Q965 1200 1096 1072T1236 649L1237 560L1235 449H450Q467 373 524 338T692 303Q806 303 894 327T1055 406L1257 145Q1140 54 1011 16T692 -23ZM866 688Q862 764 844 797T787 847T680 864Q572 864 517 825T448 698L446 688H866ZM225 1597H590V1280H225V1597ZM707 1597H1071V1280H707V1597Z"/><glyph unicode="ì" horiz-adv-x="657" d="M-137 1686H358L526 1280H162L-137 1686ZM125 1174H530V0H125V1174Z"/><glyph unicode="í" horiz-adv-x="657" d="M297 1686H793L494 1280H129L297 1686ZM125 1174H530V0H125V1174Z"/><glyph unicode="î" horiz-adv-x="657" d="M131 1686H524L803 1280H438L324 1434L209 1280H-147L131 1686ZM125 1174H530V0H125V1174Z"/><glyph unicode="ï" horiz-adv-x="657" d="M-43 1597H281V1280H-43V1597ZM377 1597H700V1280H377V1597ZM125 1174H530V0H125V1174Z"/><glyph unicode="ð" horiz-adv-x="1391" d="M545 1354L683 1378Q638 1451 584 1526L983 1647Q1049 1577 1120 1454L1343 1493V1235L1227 1215Q1276 1079 1303 931T1331 649Q1331 302 1180 140T692 -23Q381 -23 219 119T57 535Q57 797 184 924T565 1051Q668 1051 749 1022T870 940Q861 1023 808 1142L545 1096V1354ZM692 324Q809 324 865 378T922 547Q922 660 866 710T692 760Q578 760 523 710T467 547Q467 434 523 379T692 324Z"/><glyph unicode="ñ" horiz-adv-x="1407" d="M113 1151L428 1176L461 1071Q580 1200 881 1200Q1031 1200 1122 1150T1257 997T1300 709V0H895V625Q895 708 879 744T827 800T729 819Q650 819 605 800T539 740T518 618V0H113V1151ZM159 1446Q368 1702 553 1702Q607 1702 645 1684T714 1645T773 1605T835 1587Q911 1587 1013 1712L1235 1530Q1027 1274 841 1274Q756 1274 683 1333Q645 1363 617 1377T561 1391Q484 1391 381 1264L159 1446Z"/><glyph unicode="ò" horiz-adv-x="1386" d="M694 -23Q371 -23 214 127T57 590Q57 902 214 1051T694 1200Q1018 1200 1173 1052T1329 590Q1329 276 1174 127T694 -23ZM694 324Q813 324 867 381T922 578Q922 717 867 774T694 831Q612 831 562 804T490 726T467 578Q467 437 522 381T694 324ZM166 1686H651L930 1280H575L166 1686Z"/><glyph unicode="ó" horiz-adv-x="1386" d="M694 -23Q371 -23 214 127T57 590Q57 902 214 1051T694 1200Q1018 1200 1173 1052T1329 590Q1329 276 1174 127T694 -23ZM694 324Q813 324 867 381T922 578Q922 717 867 774T694 831Q612 831 562 804T490 726T467 578Q467 437 522 381T694 324ZM733 1686H1218L809 1280H455L733 1686Z"/><glyph unicode="ô" horiz-adv-x="1386" d="M694 -23Q371 -23 214 127T57 590Q57 902 214 1051T694 1200Q1018 1200 1173 1052T1329 590Q1329 276 1174 127T694 -23ZM694 324Q813 324 867 381T922 578Q922 717 867 774T694 831Q612 831 562 804T490 726T467 578Q467 437 522 381T694 324ZM485 1686H899L1218 1280H844L688 1434L532 1280H166L485 1686Z"/><glyph unicode="õ" horiz-adv-x="1386" d="M694 -23Q371 -23 214 127T57 590Q57 902 214 1051T694 1200Q1018 1200 1173 1052T1329 590Q1329 276 1174 127T694 -23ZM694 324Q813 324 867 381T922 578Q922 717 867 774T694 831Q612 831 562 804T490 726T467 578Q467 437 522 381T694 324ZM149 1446Q358 1702 543 1702Q597 1702 635 1684T704 1645T763 1605T825 1587Q901 1587 1003 1712L1225 1530Q1017 1274 831 1274Q746 1274 673 1333Q635 1363 607 1377T551 1391Q474 1391 371 1264L149 1446Z"/><glyph unicode="ö" horiz-adv-x="1386" d="M694 -23Q371 -23 214 127T57 590Q57 902 214 1051T694 1200Q1018 1200 1173 1052T1329 590Q1329 276 1174 127T694 -23ZM694 324Q813 324 867 381T922 578Q922 717 867 774T694 831Q612 831 562 804T490 726T467 578Q467 437 522 381T694 324ZM270 1597H635V1280H270V1597ZM752 1597H1116V1280H752V1597Z"/><glyph unicode="÷" horiz-adv-x="1507" d="M555 453H950V131H555V453ZM176 903H1331V541H176V903ZM555 1313H950V991H555V1313Z"/><glyph unicode="ø" horiz-adv-x="1386" d="M694 -23Q552 -23 447 2L387 -90H109L233 102Q147 167 102 289T57 590Q57 912 210 1056T694 1200Q833 1200 937 1176L997 1268H1280L1154 1076Q1250 995 1289 876T1329 590Q1329 266 1176 122T694 -23ZM694 313Q779 313 831 341T906 423T930 578Q930 679 907 732L634 316L694 313ZM694 842Q610 842 559 815T484 735T459 578Q459 484 476 439L737 840L694 842Z"/><glyph unicode="ù" horiz-adv-x="1389" d="M694 -23Q467 -23 342 35T162 222T106 582V1174H512V573Q512 458 529 416T586 354T698 334Q770 334 809 355T865 417T883 573V1174H1282V582Q1282 346 1226 219T1045 34T694 -23ZM168 1686H653L932 1280H577L168 1686Z"/><glyph unicode="ú" horiz-adv-x="1389" d="M694 -23Q467 -23 342 35T162 222T106 582V1174H512V573Q512 458 529 416T586 354T698 334Q770 334 809 355T865 417T883 573V1174H1282V582Q1282 346 1226 219T1045 34T694 -23ZM735 1686H1220L811 1280H457L735 1686Z"/><glyph unicode="û" horiz-adv-x="1389" d="M694 -23Q467 -23 342 35T162 222T106 582V1174H512V573Q512 458 529 416T586 354T698 334Q770 334 809 355T865 417T883 573V1174H1282V582Q1282 346 1226 219T1045 34T694 -23ZM487 1686H901L1220 1280H846L690 1434L534 1280H168L487 1686Z"/><glyph unicode="ü" horiz-adv-x="1389" d="M694 -23Q467 -23 342 35T162 222T106 582V1174H512V573Q512 458 529 416T586 354T698 334Q770 334 809 355T865 417T883 573V1174H1282V582Q1282 346 1226 219T1045 34T694 -23ZM272 1597H637V1280H272V1597ZM754 1597H1118V1280H754V1597Z"/><glyph unicode="ý" horiz-adv-x="1253" d="M-14 1174H424L644 548L856 1174H1268L815 -18Q764 -157 702 -224T542 -320T283 -350L158 -346V-43H244Q321 -43 353 -38T402 -19T428 33L-14 1174ZM668 1686H1153L744 1280H390L668 1686Z"/><glyph unicode="þ" horiz-adv-x="1432" d="M113 1589H516V1108Q614 1200 870 1200Q1123 1200 1248 1053T1374 590Q1374 277 1241 130T846 -18Q613 -18 518 72V-338H113V1589ZM762 324Q834 324 878 350T942 428T963 573Q963 674 943 725T879 804T762 831Q635 831 577 772T518 573Q518 473 542 423T619 349T762 324Z"/><glyph unicode="ÿ" horiz-adv-x="1253" d="M-14 1174H424L644 548L856 1174H1268L815 -18Q764 -157 702 -224T542 -320T283 -350L158 -346V-43H244Q321 -43 353 -38T402 -19T428 33L-14 1174ZM205 1597H570V1280H205V1597ZM687 1597H1051V1280H687V1597Z"/><glyph unicode="Ā" horiz-adv-x="1681" d="M623 1528H1055L1667 0H1227L1151 197H504L428 0H14L623 1528ZM1016 545L827 1028L639 545H1016ZM379 1917H1301V1595H379V1917Z"/><glyph unicode="ā" horiz-adv-x="1348" d="M487 -18Q325 -18 225 21T78 138T31 352Q31 502 99 587T313 710T770 748H807Q804 795 787 812T730 837T616 846Q530 846 442 822T283 752L80 1049Q179 1115 342 1157T662 1200Q869 1200 982 1158T1146 1023T1196 737V424Q1196 362 1212 348T1288 334V4Q1246 -6 1116 -6Q1010 -6 960 19T877 100Q833 46 736 14T487 -18ZM416 387Q416 343 450 325T571 307Q693 307 750 343T807 465V504H797Q682 504 611 500T497 485T435 455T416 387ZM213 1602H1135V1280H213V1602Z"/><glyph unicode="Ă" horiz-adv-x="1681" d="M623 1528H1055L1667 0H1227L1151 197H504L428 0H14L623 1528ZM1016 545L827 1028L639 545H1016ZM840 1575Q699 1575 607 1621T460 1760T371 2029L660 2082Q685 1961 720 1923T840 1884Q923 1884 958 1921T1020 2082L1313 2031Q1276 1850 1220 1758T1071 1621T840 1575Z"/><glyph unicode="ă" horiz-adv-x="1348" d="M487 -18Q325 -18 225 21T78 138T31 352Q31 502 99 587T313 710T770 748H807Q804 795 787 812T730 837T616 846Q530 846 442 822T283 752L80 1049Q179 1115 342 1157T662 1200Q869 1200 982 1158T1146 1023T1196 737V424Q1196 362 1212 348T1288 334V4Q1246 -6 1116 -6Q1010 -6 960 19T877 100Q833 46 736 14T487 -18ZM416 387Q416 343 450 325T571 307Q693 307 750 343T807 465V504H797Q682 504 611 500T497 485T435 455T416 387ZM674 1260Q533 1260 441 1306T294 1445T205 1714L494 1767Q519 1646 554 1608T674 1569Q757 1569 792 1606T854 1767L1147 1716Q1110 1535 1054 1443T905 1306T674 1260Z"/><glyph unicode="Ą" horiz-adv-x="1681" d="M623 1528H1055L1667 0H1493Q1313 -130 1313 -229Q1313 -266 1336 -280T1423 -295Q1514 -295 1624 -254L1681 -436Q1504 -512 1354 -512Q1187 -512 1114 -459T1040 -276Q1040 -189 1091 -115T1225 0L1151 197H504L428 0H14L623 1528ZM1016 545L827 1028L639 545H1016Z"/><glyph unicode="ą" horiz-adv-x="1348" d="M487 -18Q325 -18 225 21T78 138T31 352Q31 502 99 587T313 710T770 748H807Q805 795 786 813T725 838T616 846Q530 846 442 822T283 752L80 1049Q179 1115 342 1157T662 1200Q869 1200 982 1158T1146 1023T1196 737V424Q1196 362 1212 348T1288 334V4Q1183 -65 1135 -119T1087 -229Q1087 -267 1112 -281T1198 -295Q1287 -295 1358 -268L1415 -451Q1266 -512 1128 -512Q960 -512 888 -459T815 -276Q815 -194 865 -120T1006 4Q917 25 877 100Q833 46 736 14T487 -18ZM571 307Q693 307 750 343T807 465V504H797Q682 504 611 500T497 485T435 455T416 387Q416 343 450 325T571 307Z"/><glyph unicode="Ć" horiz-adv-x="1593" d="M856 -23Q445 -23 252 163T59 760Q59 1542 883 1542Q1097 1542 1244 1488T1511 1307L1219 1014Q1138 1095 1061 1124T881 1153Q678 1153 583 1058T487 754Q487 605 527 522T653 398T883 356Q958 356 1017 370T1125 413T1243 506L1522 233Q1389 92 1233 35T856 -23ZM838 2001H1323L914 1595H560L838 2001Z"/><glyph unicode="ć" horiz-adv-x="1227" d="M678 -18Q471 -18 334 44T127 238T57 590Q57 814 129 946T344 1139T698 1200Q1028 1200 1200 997L915 729Q858 789 810 809T696 829Q576 829 522 774T467 578Q467 435 522 380T700 324Q773 324 825 347T940 430L1198 184Q1073 66 962 24T678 -18ZM653 1686H1138L729 1280H375L653 1686Z"/><glyph unicode="Č" horiz-adv-x="1593" d="M856 -23Q445 -23 252 163T59 760Q59 1542 883 1542Q1097 1542 1244 1488T1511 1307L1219 1014Q1138 1095 1061 1124T881 1153Q678 1153 583 1058T487 754Q487 605 527 522T653 398T883 356Q958 356 1017 370T1125 413T1243 506L1522 233Q1389 92 1233 35T856 -23ZM271 2001H646L801 1847L957 2001H1323L1004 1595H590L271 2001Z"/><glyph unicode="č" horiz-adv-x="1227" d="M678 -18Q471 -18 334 44T127 238T57 590Q57 814 129 946T344 1139T698 1200Q1028 1200 1200 997L915 729Q858 789 810 809T696 829Q576 829 522 774T467 578Q467 435 522 380T700 324Q773 324 825 347T940 430L1198 184Q1073 66 962 24T678 -18ZM86 1686H461L616 1532L772 1686H1138L819 1280H405L86 1686Z"/><glyph unicode="Ď" horiz-adv-x="1645" d="M139 1518H709Q1062 1518 1243 1445T1505 1209T1587 760Q1587 474 1504 311T1238 74T709 0H139V1518ZM733 369Q904 369 994 400T1121 504T1159 760Q1159 906 1139 970T1072 1069T941 1120T713 1137H563V369H733ZM295 2001H670L825 1847L981 2001H1347L1028 1595H614L295 2001Z"/><glyph unicode="ď" horiz-adv-x="1804" d="M1430 1069Q1526 1114 1549 1130T1581 1162T1591 1210H1432V1589H1804V1325Q1804 1177 1781 1113T1702 1003T1511 901L1430 1069ZM569 -23Q57 -23 57 594Q57 1200 584 1200Q809 1200 911 1110V1589H1319V14L1008 -14L967 92Q842 -23 569 -23ZM670 326Q791 326 851 387T911 594Q911 694 888 742T813 813T670 836Q598 836 554 811T490 738T469 594Q469 491 489 438T554 355T670 326Z"/><glyph unicode="Đ" horiz-adv-x="1645" d="M0 924H139V1518H709Q1062 1518 1243 1445T1505 1209T1587 760Q1587 481 1501 316T1231 76T709 0H139V590H0V924ZM733 369Q904 369 994 400T1121 504T1159 760Q1159 906 1139 970T1072 1069T941 1120T713 1137H563V924H813V590H563V369H733Z"/><glyph unicode="đ" horiz-adv-x="1432" d="M569 -23Q57 -23 57 594Q57 1200 584 1200Q809 1200 911 1110V1237H729V1497H911V1589H1319V1497H1430V1237H1319V14L1008 -14L967 92Q842 -23 569 -23ZM670 326Q791 326 851 387T911 594Q911 694 888 742T813 813T670 836Q598 836 554 811T490 738T469 594Q469 491 489 438T554 355T670 326Z"/><glyph unicode="Ē" horiz-adv-x="1458" d="M139 1518H1348V1135H563V950H1327V580H563V367H1356V0H139V1518ZM268 1917H1190V1595H268V1917Z"/><glyph unicode="ē" horiz-adv-x="1294" d="M692 -23Q367 -23 212 123T57 590Q57 808 128 940T340 1136T692 1200Q965 1200 1096 1072T1236 649L1237 560L1235 449H450Q467 373 524 338T692 303Q806 303 894 327T1055 406L1257 145Q1140 54 1011 16T692 -23ZM866 688Q862 764 844 797T787 847T680 864Q572 864 517 825T448 698L446 688H866ZM186 1602H1108V1280H186V1602Z"/><glyph unicode="Ė" horiz-adv-x="1458" d="M139 1518H1348V1135H563V950H1327V580H563V367H1356V0H139V1518ZM522 1917H934V1595H522V1917Z"/><glyph unicode="ė" horiz-adv-x="1294" d="M692 -23Q367 -23 212 123T57 590Q57 808 128 940T340 1136T692 1200Q965 1200 1096 1072T1236 649L1237 560L1235 449H450Q467 373 524 338T692 303Q806 303 894 327T1055 406L1257 145Q1140 54 1011 16T692 -23ZM866 688Q862 764 844 797T787 847T680 864Q572 864 517 825T448 698L446 688H866ZM440 1602H852V1280H440V1602Z"/><glyph unicode="Ę" horiz-adv-x="1458" d="M139 1518H1348V1135H563V950H1327V580H563V367H1356V0H1171Q991 -131 991 -229Q991 -267 1016 -281T1102 -295Q1193 -295 1303 -254L1360 -436Q1181 -512 1032 -512Q918 -512 850 -489T751 -416T719 -276Q719 -195 779 -122T940 0H139V1518Z"/><glyph unicode="ę" horiz-adv-x="1294" d="M692 -23Q367 -23 212 123T57 590Q57 808 128 940T340 1136T692 1200Q965 1200 1096 1072T1236 649L1237 560L1235 449H451Q466 374 521 339T692 303Q806 303 894 327T1055 406L1257 145Q1129 48 993 10Q896 -59 847 -116T797 -229Q797 -266 820 -280T907 -295Q998 -295 1108 -254L1165 -436Q988 -512 838 -512Q671 -512 598 -459T524 -276Q524 -204 571 -138T705 -23H692ZM680 864Q569 864 515 824T446 688H866Q862 764 844 797T787 847T680 864Z"/><glyph unicode="Ě" horiz-adv-x="1458" d="M139 1518H1348V1135H563V950H1327V580H563V367H1356V0H139V1518ZM203 2001H578L733 1847L889 2001H1255L936 1595H522L203 2001Z"/><glyph unicode="ě" horiz-adv-x="1294" d="M692 -23Q367 -23 212 123T57 590Q57 808 128 940T340 1136T692 1200Q965 1200 1096 1072T1236 649L1237 560L1235 449H450Q467 373 524 338T692 303Q806 303 894 327T1055 406L1257 145Q1140 54 1011 16T692 -23ZM866 688Q862 764 844 797T787 847T680 864Q572 864 517 825T448 698L446 688H866ZM121 1686H496L651 1532L807 1686H1173L854 1280H440L121 1686Z"/><glyph unicode="Ğ" horiz-adv-x="1659" d="M850 -23Q563 -23 390 55T138 297T59 760Q59 1153 262 1347T881 1542Q1095 1542 1255 1487T1528 1313L1235 1020Q1157 1098 1075 1125T879 1153Q674 1153 579 1061T483 756Q483 578 519 495T640 373T872 334Q1054 334 1127 382T1200 539V563H815V905H1610V623Q1610 388 1533 249T1291 44T850 -23ZM829 1575Q688 1575 596 1621T449 1760T360 2029L649 2082Q674 1961 709 1923T829 1884Q912 1884 947 1921T1009 2082L1302 2031Q1265 1850 1209 1758T1060 1621T829 1575Z"/><glyph unicode="ğ" horiz-adv-x="1393" d="M666 432Q600 432 541 436L539 414Q539 388 553 379T605 366T705 362Q960 362 1092 333T1278 238T1333 31Q1333 -178 1178 -272T664 -367Q377 -367 253 -342T74 -258T20 -84Q20 16 83 81T258 172Q178 238 178 348Q178 446 239 513Q159 562 123 632T86 801Q86 1004 229 1102T666 1200H702L1286 1333V1028H1131L1148 1018Q1249 956 1249 801Q1249 609 1112 521T666 432ZM680 -111Q807 -111 862 -87T918 -2Q918 49 866 66T680 84Q575 84 524 77T452 53T430 -10Q430 -54 454 -73T534 -102T680 -111ZM666 659Q765 659 807 684T850 778Q850 827 833 850T776 885T666 897Q567 897 525 872T483 778Q483 712 524 686T666 659ZM696 1260Q555 1260 463 1306T316 1445T227 1714L516 1767Q541 1646 576 1608T696 1569Q779 1569 814 1606T876 1767L1169 1716Q1132 1535 1076 1443T927 1306T696 1260Z"/><glyph unicode="Ģ" horiz-adv-x="1659" d="M850 -23Q563 -23 390 55T138 297T59 760Q59 1153 262 1347T881 1542Q1095 1542 1255 1487T1528 1313L1235 1020Q1157 1098 1075 1125T879 1153Q674 1153 579 1061T483 756Q483 578 519 495T640 373T872 334Q1054 334 1127 382T1200 539V563H815V905H1610V623Q1610 388 1533 249T1291 44T850 -23ZM652 -598Q748 -553 771 -537T803 -505T813 -457H633V-78H1026V-342Q1026 -490 1003 -554T924 -664T733 -766L652 -598Z"/><glyph unicode="ģ" horiz-adv-x="1393" d="M500 1507Q500 1655 523 1718T604 1828T795 1931L875 1763Q794 1726 764 1708T724 1673T713 1622H893V1280H500V1507ZM666 432Q600 432 541 436L539 414Q539 388 553 379T605 366T705 362Q960 362 1092 333T1278 238T1333 31Q1333 -178 1178 -272T664 -367Q377 -367 253 -342T74 -258T20 -84Q20 16 83 81T258 172Q178 238 178 348Q178 446 239 513Q159 562 123 632T86 801Q86 1004 229 1102T666 1200H702L1286 1333V1028H1131L1148 1018Q1249 956 1249 801Q1249 609 1112 521T666 432ZM680 -111Q807 -111 862 -87T918 -2Q918 49 866 66T680 84Q575 84 524 77T452 53T430 -10Q430 -54 454 -73T534 -102T680 -111ZM666 659Q765 659 807 684T850 778Q850 827 833 850T776 885T666 897Q567 897 525 872T483 778Q483 712 524 686T666 659Z"/><glyph unicode="Ī" horiz-adv-x="752" d="M164 1518H588V0H164V1518ZM-85 1917H837V1595H-85V1917Z"/><glyph unicode="ī" horiz-adv-x="657" d="M125 1174H530V0H125V1174ZM-133 1602H789V1280H-133V1602Z"/><glyph unicode="Į" horiz-adv-x="752" d="M164 1518H588V0Q488 -66 446 -120T403 -229Q403 -267 428 -281T514 -295Q601 -295 690 -262L748 -444Q594 -512 444 -512Q276 -512 204 -459T131 -276Q131 -191 181 -117T313 0H164V1518Z"/><glyph unicode="į" horiz-adv-x="657" d="M125 1174H530V0Q430 -66 388 -120T346 -229Q346 -267 371 -281T457 -295Q544 -295 633 -262L690 -444Q536 -512 387 -512Q273 -512 205 -489T106 -416T74 -276Q74 -191 124 -117T256 0H125V1174ZM123 1589H532V1260H123V1589Z"/><glyph unicode="İ" horiz-adv-x="752" d="M164 1518H588V0H164V1518ZM169 1917H581V1595H169V1917Z"/><glyph unicode="ı" horiz-adv-x="657" d="M125 1174H530V0H125V1174Z"/><glyph unicode="Ķ" horiz-adv-x="1614" d="M139 1518H557V921L1034 1518H1501L1003 914L1575 0H1094L729 582L557 373V0H139V1518ZM629 -598Q725 -553 748 -537T780 -505T790 -457H610V-78H1003V-342Q1003 -490 980 -554T901 -664T710 -766L629 -598Z"/><glyph unicode="ķ" horiz-adv-x="1305" d="M113 1589H514V777L831 1174H1274L891 699L1305 0H854L618 390L514 266V0H113V1589ZM474 -598Q570 -553 593 -537T625 -505T635 -457H455V-78H848V-342Q848 -490 825 -554T746 -664T555 -766L474 -598Z"/><glyph unicode="Ĺ" horiz-adv-x="1294" d="M139 1518H563V367H1278V0H139V1518ZM456 2001H941L532 1595H178L456 2001Z"/><glyph unicode="ĺ" horiz-adv-x="750" d="M485 -4Q349 -4 275 36T163 162T125 391V1589H530V442Q530 379 551 359T635 338H670V4Q622 -4 485 -4ZM417 2083H902L493 1677H139L417 2083Z"/><glyph unicode="Ļ" horiz-adv-x="1294" d="M139 1518H563V367H1278V0H139V1518ZM469 -598Q565 -553 588 -537T620 -505T630 -457H450V-78H843V-342Q843 -490 820 -554T741 -664T550 -766L469 -598Z"/><glyph unicode="ļ" horiz-adv-x="750" d="M485 -4Q349 -4 275 36T163 162T125 391V1589H530V442Q530 379 551 359T635 338H670V4Q622 -4 485 -4ZM197 -598Q293 -553 316 -537T348 -505T358 -457H178V-78H571V-342Q571 -490 548 -554T469 -664T278 -766L197 -598Z"/><glyph unicode="Ľ" horiz-adv-x="1294" d="M672 1069Q773 1117 795 1132T825 1164T834 1210H674V1589H1047V1325Q1047 1179 1024 1114T943 1003T754 901L672 1069ZM139 1518H563V367H1278V0H139V1518Z"/><glyph unicode="ľ" horiz-adv-x="1016" d="M641 1069Q742 1117 764 1132T794 1164T803 1210H643V1589H1016V1325Q1016 1179 993 1114T912 1003T723 901L641 1069ZM485 -4Q349 -4 275 36T163 162T125 391V1589H530V442Q530 379 551 359T635 338H670V4Q622 -4 485 -4Z"/><glyph unicode="Ł" horiz-adv-x="1294" d="M0 819L139 895V1518H563V1128L811 1264V924L563 788V367H1278V0H139V555L0 479V819Z"/><glyph unicode="ł" horiz-adv-x="883" d="M51 932L217 1027V1589H623V1261L788 1356V1016L623 921V442Q623 377 643 358T727 338H762V4Q714 -4 578 -4Q442 -4 367 36T255 163T217 391V687L51 592V932Z"/><glyph unicode="Ń" horiz-adv-x="1731" d="M139 1518H594L1186 715V1518H1591V0H1200L545 887V0H139V1518ZM905 2001H1390L981 1595H627L905 2001Z"/><glyph unicode="ń" horiz-adv-x="1407" d="M113 1151L428 1176L461 1071Q580 1200 881 1200Q1031 1200 1122 1150T1257 997T1300 709V0H895V625Q895 708 879 744T827 800T729 819Q650 819 605 800T539 740T518 618V0H113V1151ZM743 1686H1228L819 1280H465L743 1686Z"/><glyph unicode="Ņ" horiz-adv-x="1731" d="M139 1518H594L1186 715V1518H1591V0H1200L545 887V0H139V1518ZM687 -598Q783 -553 806 -537T838 -505T848 -457H668V-78H1061V-342Q1061 -490 1038 -554T959 -664T768 -766L687 -598Z"/><glyph unicode="ņ" horiz-adv-x="1407" d="M113 1151L428 1176L461 1071Q580 1200 881 1200Q1031 1200 1122 1150T1257 997T1300 709V0H895V625Q895 708 879 744T827 800T729 819Q650 819 605 800T539 740T518 618V0H113V1151ZM525 -598Q621 -553 644 -537T676 -505T686 -457H506V-78H899V-342Q899 -490 876 -554T797 -664T606 -766L525 -598Z"/><glyph unicode="Ň" horiz-adv-x="1731" d="M139 1518H594L1186 715V1518H1591V0H1200L545 887V0H139V1518ZM338 2001H713L868 1847L1024 2001H1390L1071 1595H657L338 2001Z"/><glyph unicode="ň" horiz-adv-x="1407" d="M113 1151L428 1176L461 1071Q580 1200 881 1200Q1031 1200 1122 1150T1257 997T1300 709V0H895V625Q895 708 879 744T827 800T729 819Q650 819 605 800T539 740T518 618V0H113V1151ZM176 1686H551L706 1532L862 1686H1228L909 1280H495L176 1686Z"/><glyph unicode="Ō" horiz-adv-x="1767" d="M883 -25Q467 -25 263 172T59 760Q59 1149 263 1345T883 1542Q1708 1542 1708 760Q1708 -25 883 -25ZM883 348Q1084 348 1181 442T1278 752Q1278 963 1183 1058T883 1153Q679 1153 583 1058T487 752Q487 537 584 443T883 348ZM422 1917H1344V1595H422V1917Z"/><glyph unicode="ō" horiz-adv-x="1386" d="M694 -23Q371 -23 214 127T57 590Q57 902 214 1051T694 1200Q1018 1200 1173 1052T1329 590Q1329 276 1174 127T694 -23ZM694 324Q813 324 867 381T922 578Q922 717 867 774T694 831Q612 831 562 804T490 726T467 578Q467 437 522 381T694 324ZM231 1602H1153V1280H231V1602Z"/><glyph unicode="Ő" horiz-adv-x="1767" d="M883 -25Q467 -25 263 172T59 760Q59 1149 263 1345T883 1542Q1708 1542 1708 760Q1708 -25 883 -25ZM883 348Q1084 348 1181 442T1278 752Q1278 963 1183 1058T883 1153Q679 1153 583 1058T487 752Q487 537 584 443T883 348ZM592 2001H1057L668 1595H334L592 2001ZM1190 2001H1655L1266 1595H932L1190 2001Z"/><glyph unicode="ő" horiz-adv-x="1386" d="M694 -23Q371 -23 214 127T57 590Q57 902 214 1051T694 1200Q1018 1200 1173 1052T1329 590Q1329 276 1174 127T694 -23ZM694 324Q813 324 867 381T922 578Q922 717 867 774T694 831Q612 831 562 804T490 726T467 578Q467 437 522 381T694 324ZM401 1686H866L477 1280H143L401 1686ZM999 1686H1464L1075 1280H741L999 1686Z"/><glyph unicode="Œ" horiz-adv-x="2587" d="M1309 1518H2476V1135H1692V950H2456V580H1692V367H2484V0H1309V75Q1143 -25 883 -25Q467 -25 263 172T59 760Q59 1149 263 1345T883 1542Q1143 1542 1309 1441V1518ZM883 348Q1084 348 1181 442T1278 752Q1278 963 1183 1058T883 1153Q679 1153 583 1058T487 752Q487 537 584 443T883 348Z"/><glyph unicode="œ" horiz-adv-x="2163" d="M1561 -23Q1404 -23 1294 9T1122 95Q978 -23 694 -23Q363 -23 210 122T57 590Q57 912 210 1056T694 1200Q983 1200 1124 1082Q1202 1142 1307 1171T1561 1200Q1834 1200 1965 1073T2105 649V574L2103 449H1319Q1336 371 1393 337T1561 303Q1674 303 1761 327T1923 406L2126 145Q2007 53 1880 15T1561 -23ZM694 324Q813 324 867 381T922 578Q922 717 867 774T694 831Q612 831 562 804T490 726T467 578Q467 437 522 381T694 324ZM1735 688Q1731 765 1712 797T1654 847T1548 864Q1440 864 1385 825T1316 698L1315 688H1735Z"/><glyph unicode="Ŕ" horiz-adv-x="1636" d="M139 1518H909Q1126 1518 1267 1466T1476 1303T1544 995Q1544 798 1470 682T1251 511L1528 0H1073L828 455H553V0H139V1518ZM895 807Q1024 807 1070 843T1116 979Q1116 1085 1070 1121T893 1157H553V807H895ZM858 2001H1343L934 1595H580L858 2001Z"/><glyph unicode="ŕ" horiz-adv-x="874" d="M113 1151L428 1176L469 1053Q510 1109 612 1146T829 1188V797Q710 796 643 774T547 705T518 555V0H113V1151ZM472 1686H957L548 1280H194L472 1686Z"/><glyph unicode="Ŗ" horiz-adv-x="1636" d="M139 1518H909Q1126 1518 1267 1466T1476 1303T1544 995Q1544 798 1470 682T1251 511L1528 0H1073L828 455H553V0H139V1518ZM895 807Q1024 807 1070 843T1116 979Q1116 1085 1070 1121T893 1157H553V807H895ZM639 -598Q735 -553 758 -537T790 -505T800 -457H620V-78H1013V-342Q1013 -490 990 -554T911 -664T720 -766L639 -598Z"/><glyph unicode="ŗ" horiz-adv-x="874" d="M113 1151L428 1176L469 1053Q510 1109 612 1146T829 1188V797Q710 796 643 774T547 705T518 555V0H113V1151ZM393 -598Q489 -553 512 -537T544 -505T554 -457H374V-78H767V-342Q767 -490 744 -554T665 -664T474 -766L393 -598Z"/><glyph unicode="Ř" horiz-adv-x="1636" d="M139 1518H909Q1126 1518 1267 1466T1476 1303T1544 995Q1544 798 1470 682T1251 511L1528 0H1073L828 455H553V0H139V1518ZM895 807Q1024 807 1070 843T1116 979Q1116 1085 1070 1121T893 1157H553V807H895ZM291 2001H666L821 1847L977 2001H1343L1024 1595H610L291 2001Z"/><glyph unicode="ř" horiz-adv-x="862" d="M113 1151L428 1176L469 1053Q510 1109 612 1146T829 1188V797Q710 796 643 774T547 705T518 555V0H113V1151ZM-95 1686H280L435 1532L591 1686H957L638 1280H224L-95 1686Z"/><glyph unicode="Ś" horiz-adv-x="1559" d="M786 -23Q540 -23 338 34T14 188L227 494Q342 415 481 372T774 328Q882 328 943 335T1033 359T1068 398T1075 453Q1075 499 1018 523T760 573Q482 608 355 662T169 809T111 1057Q111 1316 266 1429T784 1542Q1204 1542 1444 1386L1214 1057Q1141 1105 1015 1139T780 1174Q683 1174 630 1165T555 1136T532 1067Q532 1033 555 1012T630 978T868 940Q1077 914 1189 879T1365 791T1462 661T1495 473Q1495 292 1422 187T1192 29T786 -23ZM819 2001H1304L895 1595H541L819 2001Z"/><glyph unicode="ś" horiz-adv-x="1227" d="M596 -18Q426 -18 272 20T0 139L199 418Q281 363 398 328T621 293Q690 293 722 297T769 312T784 348Q784 375 753 387T627 410Q448 424 352 450T198 522T110 640T80 811Q80 1013 212 1106T627 1200Q786 1200 923 1172T1155 1090L973 791Q903 825 808 844T641 864Q557 864 521 854T485 809Q485 789 497 779T545 762T629 750Q807 731 881 715T1010 673T1102 608T1160 513T1180 377Q1180 229 1122 145T936 22T596 -18ZM653 1686H1138L729 1280H375L653 1686Z"/><glyph unicode="Ş" horiz-adv-x="1559" d="M786 -23Q540 -23 338 34T14 188L227 494Q342 415 481 372T774 328Q882 328 943 335T1033 359T1068 398T1075 453Q1075 499 1018 523T760 573Q482 608 355 662T169 809T111 1057Q111 1316 266 1429T784 1542Q1204 1542 1444 1386L1214 1057Q1141 1105 1015 1139T780 1174Q683 1174 630 1165T555 1136T532 1067Q532 1033 555 1012T630 978T868 940Q1077 914 1189 879T1365 791T1462 661T1495 473Q1495 292 1422 187T1192 29T786 -23ZM770 -537Q608 -537 477 -463L573 -281Q679 -332 754 -332Q812 -332 839 -318T866 -260Q866 -195 764 -195L692 -199L623 -158L661 14H881L862 -84H884Q988 -84 1033 -105T1103 -169T1128 -289Q1128 -415 1046 -476T770 -537Z"/><glyph unicode="ş" horiz-adv-x="1227" d="M596 -18Q426 -18 272 20T0 139L199 418Q281 363 398 328T621 293Q690 293 722 297T769 312T784 348Q784 375 753 387T627 410Q448 424 352 450T198 522T110 640T80 811Q80 1013 212 1106T627 1200Q786 1200 923 1172T1155 1090L973 791Q903 825 808 844T641 864Q557 864 521 854T485 809Q485 789 497 779T545 762T629 750Q807 731 881 715T1010 673T1102 608T1160 513T1180 377Q1180 229 1122 145T936 22T596 -18ZM604 -537Q442 -537 311 -463L407 -281Q513 -332 588 -332Q646 -332 673 -318T700 -260Q700 -195 598 -195L526 -199L457 -158L495 14H715L696 -84H718Q822 -84 867 -105T937 -169T962 -289Q962 -415 880 -476T604 -537Z"/><glyph unicode="Š" horiz-adv-x="1559" d="M786 -23Q540 -23 338 34T14 188L227 494Q342 415 481 372T774 328Q882 328 943 335T1033 359T1068 398T1075 453Q1075 499 1018 523T760 573Q482 608 355 662T169 809T111 1057Q111 1316 266 1429T784 1542Q1204 1542 1444 1386L1214 1057Q1141 1105 1015 1139T780 1174Q683 1174 630 1165T555 1136T532 1067Q532 1033 555 1012T630 978T868 940Q1077 914 1189 879T1365 791T1462 661T1495 473Q1495 292 1422 187T1192 29T786 -23ZM252 2001H627L782 1847L938 2001H1304L985 1595H571L252 2001Z"/><glyph unicode="š" horiz-adv-x="1227" d="M596 -18Q426 -18 272 20T0 139L199 418Q281 363 398 328T621 293Q690 293 722 297T769 312T784 348Q784 375 753 387T627 410Q448 424 352 450T198 522T110 640T80 811Q80 1013 212 1106T627 1200Q786 1200 923 1172T1155 1090L973 791Q903 825 808 844T641 864Q557 864 521 854T485 809Q485 789 497 779T545 762T629 750Q807 731 881 715T1010 673T1102 608T1160 513T1180 377Q1180 229 1122 145T936 22T596 -18ZM86 1686H461L616 1532L772 1686H1138L819 1280H405L86 1686Z"/><glyph unicode="Ţ" horiz-adv-x="1464" d="M520 1135H16V1518H1450V1135H946V0H520V1135ZM553 -598Q649 -553 672 -537T704 -505T714 -457H534V-78H927V-342Q927 -490 904 -554T825 -664T634 -766L553 -598Z"/><glyph unicode="ţ" horiz-adv-x="977" d="M45 1174H254L319 1425L633 1493V1174H889V829H633V459Q633 404 645 382T687 349T772 338H889V0Q796 -6 684 -6Q512 -6 415 32T273 156T229 397V829H45V1174ZM265 -598Q361 -553 384 -537T416 -505T426 -457H246V-78H639V-342Q639 -490 616 -554T537 -664T346 -766L265 -598Z"/><glyph unicode="Ť" horiz-adv-x="1464" d="M520 1135H16V1518H1450V1135H946V0H520V1135ZM205 2001H580L735 1847L891 2001H1257L938 1595H524L205 2001Z"/><glyph unicode="ť" horiz-adv-x="977" d="M713 1438Q813 1486 833 1500T859 1531T866 1573H715V1933H1067V1681Q1067 1540 1046 1480T970 1375T791 1278L713 1438ZM45 1174H254L319 1425L633 1493V1174H889V829H633V459Q633 404 645 382T687 349T772 338H889V0Q796 -6 684 -6Q512 -6 415 32T273 156T229 397V829H45V1174Z"/><glyph unicode="Ū" horiz-adv-x="1710" d="M856 -31Q681 -31 558 -4T352 72T221 190T150 349T127 596V1518H553V653Q553 519 581 460T675 372T862 344Q983 344 1049 371T1143 459T1171 653V1518H1583V596Q1583 440 1561 351T1490 191T1359 72T1153 -3T856 -31ZM393 1917H1315V1595H393V1917Z"/><glyph unicode="ū" horiz-adv-x="1389" d="M694 -23Q467 -23 342 35T162 222T106 582V1174H512V573Q512 458 529 416T586 354T698 334Q770 334 809 355T865 417T883 573V1174H1282V582Q1282 346 1226 219T1045 34T694 -23ZM233 1602H1155V1280H233V1602Z"/><glyph unicode="Ů" horiz-adv-x="1710" d="M856 -31Q681 -31 558 -4T352 72T221 190T150 349T127 596V1518H553V653Q553 519 581 460T675 372T862 344Q983 344 1049 371T1143 459T1171 653V1518H1583V596Q1583 440 1561 351T1490 191T1359 72T1153 -3T856 -31ZM854 1572Q703 1572 620 1655T537 1894Q537 2051 620 2135T854 2220Q1002 2220 1086 2133T1170 1894Q1170 1744 1086 1658T854 1572ZM854 1765Q975 1765 975 1894Q975 2025 854 2025Q733 2025 733 1894Q733 1765 854 1765Z"/><glyph unicode="ů" horiz-adv-x="1389" d="M694 -23Q467 -23 342 35T162 222T106 582V1174H512V573Q512 458 529 416T586 354T698 334Q770 334 809 355T865 417T883 573V1174H1282V582Q1282 346 1226 219T1045 34T694 -23ZM694 1257Q543 1257 460 1340T377 1579Q377 1736 460 1820T694 1905Q842 1905 926 1818T1010 1579Q1010 1429 926 1343T694 1257ZM694 1450Q815 1450 815 1579Q815 1710 694 1710Q573 1710 573 1579Q573 1450 694 1450Z"/><glyph unicode="Ű" horiz-adv-x="1710" d="M856 -31Q681 -31 558 -4T352 72T221 190T150 349T127 596V1518H553V653Q553 519 581 460T675 372T862 344Q983 344 1049 371T1143 459T1171 653V1518H1583V596Q1583 440 1561 351T1490 191T1359 72T1153 -3T856 -31ZM563 2001H1028L639 1595H305L563 2001ZM1161 2001H1626L1237 1595H903L1161 2001Z"/><glyph unicode="ű" horiz-adv-x="1389" d="M694 -23Q467 -23 342 35T162 222T106 582V1174H512V573Q512 458 529 416T586 354T698 334Q770 334 809 355T865 417T883 573V1174H1282V582Q1282 346 1226 219T1045 34T694 -23ZM403 1686H868L479 1280H145L403 1686ZM1001 1686H1466L1077 1280H743L1001 1686Z"/><glyph unicode="Ų" horiz-adv-x="1710" d="M885 -512Q718 -512 645 -459T571 -276Q571 -136 743 -27Q579 -17 463 23T275 130T165 301T127 596V1518H553V653Q553 519 581 460T675 372T862 344Q983 344 1049 371T1143 459T1171 653V1518H1583V596Q1583 409 1548 305T1442 134T1259 26T989 -27Q917 -84 881 -132T844 -229Q844 -266 867 -280T954 -295Q1045 -295 1155 -254L1212 -436Q1035 -512 885 -512Z"/><glyph unicode="ų" horiz-adv-x="1389" d="M725 -512Q611 -512 543 -489T444 -416T412 -276Q412 -204 459 -138T596 -18Q412 -9 307 53T154 239T106 582V1174H512V573Q512 458 529 416T586 354T698 334Q770 334 809 355T865 417T883 573V1174H1282V582Q1282 372 1239 251T1103 67T844 -14Q765 -76 725 -128T684 -229Q684 -267 709 -281T795 -295Q885 -295 995 -254L1053 -436Q874 -512 725 -512Z"/><glyph unicode="Ÿ" horiz-adv-x="1620" d="M-4 1518H451L817 883L1184 1518H1622L1020 501V0H596V505L-4 1518ZM387 1912H752V1595H387V1912ZM869 1912H1233V1595H869V1912Z"/><glyph unicode="Ź" horiz-adv-x="1446" d="M51 313L825 1135H86V1518H1366V1171L606 367H1389V0H51V313ZM764 2001H1249L840 1595H486L764 2001Z"/><glyph unicode="ź" horiz-adv-x="1147" d="M27 268L553 829H59V1174H1102V903L573 324H1124V0H27V268ZM871 1686H1356L947 1280H593L871 1686Z"/><glyph unicode="Ż" horiz-adv-x="1446" d="M51 313L825 1135H86V1518H1366V1171L606 367H1389V0H51V313ZM516 1917H928V1595H516V1917Z"/><glyph unicode="ż" horiz-adv-x="1147" d="M27 268L553 829H59V1174H1102V903L573 324H1124V0H27V268ZM623 1602H1035V1280H623V1602Z"/><glyph unicode="Ž" horiz-adv-x="1446" d="M51 313L825 1135H86V1518H1366V1171L606 367H1389V0H51V313ZM197 2001H572L727 1847L883 2001H1249L930 1595H516L197 2001Z"/><glyph unicode="ž" horiz-adv-x="1147" d="M27 268L553 829H59V1174H1102V903L573 324H1124V0H27V268ZM304 1686H679L834 1532L990 1686H1356L1037 1280H623L304 1686Z"/><glyph unicode="ƒ" horiz-adv-x="1348" d="M168 958H465L508 1159Q540 1311 597 1380T759 1483T1032 1518H1174V1157H1057Q976 1157 940 1133T889 1036L872 958H1174V608H796L592 -340H186L389 608H168V958Z"/><glyph unicode="Ș" horiz-adv-x="1559" d="M786 -23Q540 -23 338 34T14 188L227 494Q342 415 481 372T774 328Q882 328 943 335T1033 359T1068 398T1075 453Q1075 499 1018 523T760 573Q482 608 355 662T169 809T111 1057Q111 1316 266 1429T784 1542Q1204 1542 1444 1386L1214 1057Q1141 1105 1015 1139T780 1174Q683 1174 630 1165T555 1136T532 1067Q532 1033 555 1012T630 978T868 940Q1077 914 1189 879T1365 791T1462 661T1495 473Q1495 292 1422 187T1192 29T786 -23ZM601 -598Q697 -553 720 -537T752 -505T762 -457H582V-78H975V-342Q975 -490 952 -554T873 -664T682 -766L601 -598Z"/><glyph unicode="ș" horiz-adv-x="1227" d="M596 -18Q426 -18 272 20T0 139L199 418Q281 363 398 328T621 293Q690 293 722 297T769 312T784 348Q784 375 753 387T627 410Q448 424 352 450T198 522T110 640T80 811Q80 1013 212 1106T627 1200Q786 1200 923 1172T1155 1090L973 791Q903 825 808 844T641 864Q557 864 521 854T485 809Q485 789 497 779T545 762T629 750Q807 731 881 715T1010 673T1102 608T1160 513T1180 377Q1180 229 1122 145T936 22T596 -18ZM435 -598Q531 -553 554 -537T586 -505T596 -457H416V-78H809V-342Q809 -490 786 -554T707 -664T516 -766L435 -598Z"/><glyph unicode="Ț" horiz-adv-x="1464" d="M520 1135H16V1518H1450V1135H946V0H520V1135ZM553 -598Q649 -553 672 -537T704 -505T714 -457H534V-78H927V-342Q927 -490 904 -554T825 -664T634 -766L553 -598Z"/><glyph unicode="ț" horiz-adv-x="977" d="M45 1174H254L319 1425L633 1493V1174H889V829H633V459Q633 404 645 382T687 349T772 338H889V0Q796 -6 684 -6Q512 -6 415 32T273 156T229 397V829H45V1174ZM265 -598Q361 -553 384 -537T416 -505T426 -457H246V-78H639V-342Q639 -490 616 -554T537 -664T346 -766L265 -598Z"/><glyph unicode="ˆ" horiz-adv-x="1208" d="M397 1686H811L1130 1280H756L600 1434L444 1280H78L397 1686Z"/><glyph unicode="ˇ" horiz-adv-x="1208" d="M78 1686H453L608 1532L764 1686H1130L811 1280H397L78 1686Z"/><glyph unicode="˘" horiz-adv-x="1208" d="M604 1260Q463 1260 371 1306T224 1445T135 1714L424 1767Q449 1646 484 1608T604 1569Q687 1569 722 1606T784 1767L1077 1716Q1040 1535 984 1443T835 1306T604 1260Z"/><glyph unicode="˙" horiz-adv-x="1208" d="M397 1602H809V1280H397V1602Z"/><glyph unicode="˚" horiz-adv-x="1208" d="M604 1257Q453 1257 370 1340T287 1579Q287 1736 370 1820T604 1905Q752 1905 836 1818T920 1579Q920 1429 836 1343T604 1257ZM604 1450Q725 1450 725 1579Q725 1710 604 1710Q483 1710 483 1579Q483 1450 604 1450Z"/><glyph unicode="˛" horiz-adv-x="1208" d="M635 -512Q521 -512 453 -489T354 -416T322 -276Q322 -190 392 -111T575 14H795Q696 -57 645 -115T594 -229Q594 -264 617 -279T705 -295Q795 -295 905 -254L963 -436Q784 -512 635 -512Z"/><glyph unicode="˜" horiz-adv-x="1208" d="M61 1446Q270 1702 455 1702Q509 1702 547 1684T616 1645T675 1605T737 1587Q813 1587 915 1712L1137 1530Q929 1274 743 1274Q658 1274 585 1333Q547 1363 519 1377T463 1391Q386 1391 283 1264L61 1446Z"/><glyph unicode="˝" horiz-adv-x="1208" d="M313 1686H778L389 1280H55L313 1686ZM911 1686H1376L987 1280H653L911 1686Z"/><glyph unicode="̄" horiz-adv-x="1208" d="M143 1602H1065V1280H143V1602Z"/><glyph unicode="̦" horiz-adv-x="657" d="M150 -598Q246 -553 269 -537T301 -505T311 -457H131V-78H524V-342Q524 -490 501 -554T422 -664T231 -766L150 -598Z"/><glyph unicode="Δ" horiz-adv-x="1536" d="M76 0L652 1536H884L1456 0H76ZM352 148H1164L752 1256L352 148Z"/><glyph unicode="Ω" horiz-adv-x="1664" d="M832 1376Q644 1376 510 1234T376 836Q376 592 464 432T724 180V0H88V196H536Q416 240 304 406T192 848Q192 1112 358 1330T832 1548Q1140 1548 1306 1338T1472 848Q1472 572 1360 406T1128 196H1576V0H940V180Q1112 272 1200 432T1288 836Q1288 1044 1162 1210T832 1376Z"/><glyph unicode="μ" horiz-adv-x="1395" d="M113 1174H518V573Q518 458 535 417T591 355T705 334Q777 334 816 355T872 419T889 573V1174H1288V582Q1288 351 1235 225T1064 40T733 -18Q578 -18 518 14V-338H113V1174Z"/><glyph unicode="π" horiz-adv-x="1408" d="M296 0V1028H12V1176H1316V1028H996V344Q996 228 1042 184T1152 140Q1200 140 1232 142T1296 156V28Q1248 4 1206 -6T1088 -16Q960 -16 886 64T812 336V1028H484V0H296Z"/><glyph unicode="Ё" horiz-adv-x="1458" d="M139 1518H1348V1135H563V950H1327V580H563V367H1356V0H139V1518ZM307 1912H672V1595H307V1912ZM789 1912H1153V1595H789V1912Z"/><glyph unicode="Ђ" horiz-adv-x="1835" d="M1184 -43H1214Q1254 -43 1271 -34T1294 0T1300 92V420Q1300 511 1286 544T1239 596T1145 614Q1069 614 1027 596T965 542T946 414V0H520V1135H16V1518H1450V1135H946V907Q1052 995 1296 995Q1519 995 1624 881T1729 504V94Q1729 -82 1688 -174T1552 -307T1260 -348H1184V-43Z"/><glyph unicode="Ѓ" horiz-adv-x="1296" d="M139 1518H1280V1135H563V0H139V1518ZM688 2001H1173L764 1595H410L688 2001Z"/><glyph unicode="Є" horiz-adv-x="1589" d="M852 -23Q442 -23 251 163T59 760Q59 1149 257 1345T852 1542Q1075 1542 1232 1487T1507 1307L1214 1014Q1134 1094 1058 1123T877 1153Q577 1153 501 944H1141V586H492Q549 356 852 356Q938 356 1001 370T1116 411T1239 506L1518 233Q1385 92 1229 35T852 -23Z"/><glyph unicode="Ѕ" horiz-adv-x="1559" d="M786 -23Q540 -23 338 34T14 188L227 494Q342 415 481 372T774 328Q882 328 943 335T1033 359T1068 398T1075 453Q1075 499 1018 523T760 573Q482 608 355 662T169 809T111 1057Q111 1316 266 1429T784 1542Q1204 1542 1444 1386L1214 1057Q1141 1105 1015 1139T780 1174Q683 1174 630 1165T555 1136T532 1067Q532 1033 555 1012T630 978T868 940Q1077 914 1189 879T1365 791T1462 661T1495 473Q1495 292 1422 187T1192 29T786 -23Z"/><glyph unicode="І" horiz-adv-x="752" d="M164 1518H588V0H164V1518Z"/><glyph unicode="Ї" horiz-adv-x="752" d="M164 1518H588V0H164V1518ZM-46 1912H319V1595H-46V1912ZM436 1912H800V1595H436V1912Z"/><glyph unicode="Ј" horiz-adv-x="989" d="M295 -6Q121 -6 37 0V367H242Q351 367 393 400T436 522V1518H860V506Q860 326 799 214T620 48T295 -6Z"/><glyph unicode="Љ" horiz-adv-x="2695" d="M80 367H115Q177 367 198 385T219 471V1518H1636V1104H1985Q2213 1104 2357 1047T2569 875T2638 567Q2638 268 2472 134T1960 0H1225V1141H643V391Q643 252 603 165T483 37T264 -4Q128 -4 80 4V367ZM1978 350Q2111 350 2161 395T2212 545Q2212 656 2162 699T1976 743H1636V350H1978Z"/><glyph unicode="Њ" horiz-adv-x="2617" d="M139 1518H563V973H1145V1518H1559V1104H1907Q2135 1104 2279 1047T2491 875T2560 567Q2560 268 2394 134T1882 0H1145V575H563V0H139V1518ZM1901 350Q2030 350 2082 393T2134 545Q2134 658 2085 700T1898 743H1559V350H1901Z"/><glyph unicode="Ћ" horiz-adv-x="1835" d="M520 1135H16V1518H1450V1135H946V907Q1052 995 1296 995Q1519 995 1624 881T1729 504V0H1300V420Q1300 511 1286 544T1239 596T1145 614Q1069 614 1027 596T965 542T946 414V0H520V1135Z"/><glyph unicode="Ќ" horiz-adv-x="1614" d="M139 1518H557V921L1034 1518H1501L1003 914L1575 0H1094L729 582L557 373V0H139V1518ZM848 2001H1333L924 1595H570L848 2001Z"/><glyph unicode="Ў" horiz-adv-x="1499" d="M6 1518H465L794 822L1081 1518H1513L979 328Q910 175 851 112T704 22T463 -4L260 0V354H387Q475 354 507 361T555 390L6 1518ZM749 1575Q608 1575 516 1621T369 1760T280 2029L569 2082Q594 1961 629 1923T749 1884Q832 1884 867 1921T929 2082L1222 2031Q1185 1850 1129 1758T980 1621T749 1575Z"/><glyph unicode="Џ" horiz-adv-x="1704" d="M639 0H139V1518H563V358H1145V1518H1565V0H1065V-340H639V0Z"/><glyph unicode="А" horiz-adv-x="1681" d="M623 1528H1055L1667 0H1227L1151 197H504L428 0H14L623 1528ZM1016 545L827 1028L639 545H1016Z"/><glyph unicode="Б" horiz-adv-x="1612" d="M139 1518H1362V1135H543V1010H901Q1141 1010 1283 964T1489 819T1554 537Q1554 339 1483 224T1263 55T877 0H139V1518ZM895 348Q1036 348 1082 381T1128 514Q1128 585 1110 619T1049 668T893 682H543V348H895Z"/><glyph unicode="В" horiz-adv-x="1599" d="M139 1518H866Q1202 1518 1345 1425T1489 1114Q1489 981 1442 903T1298 786Q1422 756 1476 674T1530 416Q1530 262 1466 172T1267 41T866 0H139V1518ZM920 326Q1018 326 1059 358T1100 461Q1100 532 1059 564T920 596H555V326H920ZM881 920Q973 920 1016 948T1059 1049Q1059 1120 1017 1149T881 1178H555V920H881Z"/><glyph unicode="Г" horiz-adv-x="1296" d="M139 1518H1280V1135H563V0H139V1518Z"/><glyph unicode="Д" horiz-adv-x="1866" d="M80 367H121Q186 367 208 387T231 471V1518H1651V367H1786V-340H1360V0H506V-340H80V367ZM1225 356V1141H649V455Q649 426 646 399T621 356H1225Z"/><glyph unicode="Е" horiz-adv-x="1458" d="M139 1518H1348V1135H563V950H1327V580H563V367H1356V0H139V1518Z"/><glyph unicode="Ж" horiz-adv-x="2519" d="M520 0H39L610 914L113 1518H580L1057 920V1518H1462V920L1939 1518H2406L1908 914L2480 0H1999L1634 582L1462 373V0H1057V373L884 582L520 0Z"/><glyph unicode="З" horiz-adv-x="1513" d="M741 -25Q504 -25 327 19T12 152L209 467Q334 395 468 359T721 322Q866 322 919 335T996 379T1020 471Q1020 545 958 568T707 592H322V950H702Q867 950 922 977T977 1069Q977 1134 921 1161T711 1188Q601 1188 462 1157T260 1083L47 1391Q155 1458 351 1500T752 1542Q1079 1542 1241 1448T1403 1171Q1403 1024 1364 945T1229 825Q1348 790 1396 700T1444 444Q1444 -25 741 -25Z"/><glyph unicode="И" horiz-adv-x="1731" d="M139 1518H545V715L1137 1518H1591V0H1186V887L530 0H139V1518Z"/><glyph unicode="Й" horiz-adv-x="1731" d="M139 1518H545V715L1137 1518H1591V0H1186V887L530 0H139V1518ZM864 1575Q723 1575 631 1621T484 1760T395 2029L684 2082Q709 1961 744 1923T864 1884Q947 1884 982 1921T1044 2082L1337 2031Q1300 1850 1244 1758T1095 1621T864 1575Z"/><glyph unicode="К" horiz-adv-x="1614" d="M139 1518H557V921L1034 1518H1501L1003 914L1575 0H1094L729 582L557 373V0H139V1518Z"/><glyph unicode="Л" horiz-adv-x="1790" d="M80 367H115Q177 367 198 385T219 471V1518H1651V0H1225V1141H643V391Q643 252 603 165T483 37T264 -4Q128 -4 80 4V367Z"/><glyph unicode="М" horiz-adv-x="2071" d="M139 1518H694L1034 614L1376 1518H1929V0H1516V881L1176 0H858L522 874V0H139V1518Z"/><glyph unicode="Н" horiz-adv-x="1710" d="M139 1518H563V973H1145V1518H1571V0H1145V575H563V0H139V1518Z"/><glyph unicode="О" horiz-adv-x="1767" d="M883 -25Q467 -25 263 172T59 760Q59 1149 263 1345T883 1542Q1708 1542 1708 760Q1708 -25 883 -25ZM883 348Q1084 348 1181 442T1278 752Q1278 963 1183 1058T883 1153Q679 1153 583 1058T487 752Q487 537 584 443T883 348Z"/><glyph unicode="П" horiz-adv-x="1704" d="M139 1518H1565V0H1139V1141H557V0H139V1518Z"/><glyph unicode="Р" horiz-adv-x="1612" d="M139 1518H901Q1129 1518 1273 1461T1485 1289T1554 981Q1554 777 1481 655T1258 473T877 414H553V0H139V1518ZM895 764Q1023 764 1075 807T1128 958Q1128 1071 1078 1114T893 1157H553V764H895Z"/><glyph unicode="С" horiz-adv-x="1593" d="M856 -23Q445 -23 252 163T59 760Q59 1542 883 1542Q1097 1542 1244 1488T1511 1307L1219 1014Q1138 1095 1061 1124T881 1153Q678 1153 583 1058T487 754Q487 605 527 522T653 398T883 356Q958 356 1017 370T1125 413T1243 506L1522 233Q1389 92 1233 35T856 -23Z"/><glyph unicode="Т" horiz-adv-x="1464" d="M520 1135H16V1518H1450V1135H946V0H520V1135Z"/><glyph unicode="У" horiz-adv-x="1499" d="M6 1518H465L794 822L1081 1518H1513L979 328Q910 175 851 112T704 22T463 -4L260 0V354H387Q475 354 507 361T555 390L6 1518Z"/><glyph unicode="Ф" horiz-adv-x="2316" d="M956 186H735Q503 186 354 244T131 426T57 776Q57 988 129 1112T345 1295T715 1354H956V1518H1360V1354H1606Q1827 1354 1971 1298T2187 1122T2259 786Q2259 561 2186 435T1963 247T1581 186H1360V0H956V186ZM956 537V993H723Q595 993 539 941T483 764Q483 642 539 590T717 537H956ZM1599 537Q1721 537 1777 590T1833 764Q1833 891 1779 942T1597 993H1360V537H1599Z"/><glyph unicode="Х" horiz-adv-x="1675" d="M100 1518H580L853 1124L1106 1518H1577L1074 806L1634 0H1153L819 481L510 0H39L599 799L100 1518Z"/><glyph unicode="Ц" horiz-adv-x="1786" d="M1280 0H139V1518H563V358H1145V1518H1565V367H1706V-340H1280V0Z"/><glyph unicode="Ч" horiz-adv-x="1653" d="M1092 459Q1039 417 918 393T633 369Q364 369 233 491T102 881V1518H526V973Q526 883 551 841T632 779T784 758Q897 758 963 780T1059 845T1090 979V1518H1513V0H1092V459Z"/><glyph unicode="Ш" horiz-adv-x="2517" d="M139 1542H563V358H1047V1542H1475V358H1958V1542H2378V0H139V1542Z"/><glyph unicode="Щ" horiz-adv-x="2599" d="M2093 0H139V1542H563V358H1047V1542H1475V358H1958V1542H2378V367H2519V-340H2093V0Z"/><glyph unicode="Ъ" horiz-adv-x="1692" d="M219 1135H80V1518H633V1104H981Q1209 1104 1353 1047T1565 875T1634 567Q1634 268 1468 134T956 0H219V1135ZM975 350Q1104 350 1156 393T1208 545Q1208 658 1159 700T973 743H633V350H975Z"/><glyph unicode="Ы" horiz-adv-x="2226" d="M139 1518H553V1104H901Q1129 1104 1273 1047T1485 875T1554 567Q1554 363 1481 241T1258 59T877 0H139V1518ZM895 350Q1024 350 1076 393T1128 545Q1128 658 1079 700T893 743H553V350H895ZM1663 1518H2087V0H1663V1518Z"/><glyph unicode="Ь" horiz-adv-x="1612" d="M139 1518H553V1104H901Q1129 1104 1273 1047T1485 875T1554 567Q1554 363 1481 241T1258 59T877 0H139V1518ZM895 350Q1024 350 1076 393T1128 545Q1128 658 1079 700T893 743H553V350H895Z"/><glyph unicode="Э" horiz-adv-x="1589" d="M449 586V944H1087Q1014 1153 713 1153Q605 1153 527 1122T375 1014L82 1307Q200 1431 356 1486T737 1542Q1130 1542 1330 1346T1530 760Q1530 349 1339 163T737 -23Q518 -23 362 34T72 233L350 506Q419 440 470 413T586 371T737 356Q888 356 977 412T1097 586H449Z"/><glyph unicode="Ю" horiz-adv-x="2486" d="M139 1518H563V963H813Q861 1254 1054 1398T1602 1542Q2427 1542 2427 760Q2427 -25 1602 -25Q1236 -25 1042 129T809 586H563V0H139V1518ZM1602 348Q1803 348 1900 442T1997 752Q1997 963 1902 1058T1602 1153Q1398 1153 1302 1058T1206 752Q1206 537 1303 443T1602 348Z"/><glyph unicode="Я" horiz-adv-x="1636" d="M1083 455H808L563 0H109L385 510Q275 555 214 621T122 777T92 995Q92 1192 160 1303T369 1466T727 1518H1497V0H1083V455ZM1083 807V1157H743Q611 1157 566 1121T520 979Q520 880 566 844T741 807H1083Z"/><glyph unicode="а" horiz-adv-x="1348" d="M487 -18Q325 -18 225 21T78 138T31 352Q31 502 99 587T313 710T770 748H807Q804 795 787 812T730 837T616 846Q530 846 442 822T283 752L80 1049Q179 1115 342 1157T662 1200Q869 1200 982 1158T1146 1023T1196 737V424Q1196 362 1212 348T1288 334V4Q1246 -6 1116 -6Q1010 -6 960 19T877 100Q833 46 736 14T487 -18ZM416 387Q416 343 450 325T571 307Q693 307 750 343T807 465V504H797Q682 504 611 500T497 485T435 455T416 387Z"/><glyph unicode="б" horiz-adv-x="1389" d="M696 -23Q362 -23 210 139T57 649V788Q57 1102 123 1270T339 1513T760 1589H995V1231H780Q608 1231 538 1177T467 989Q502 1045 590 1078T823 1112Q998 1112 1110 1055T1277 877T1331 535Q1331 261 1169 119T696 -23ZM696 324Q922 324 922 547Q922 660 866 710T696 760Q580 760 524 711T467 547Q467 431 523 378T696 324Z"/><glyph unicode="в" horiz-adv-x="1378" d="M113 1174H723Q1022 1174 1144 1107T1266 883Q1266 663 1118 608Q1214 585 1255 520T1296 322Q1296 201 1241 132T1069 31T723 0H113V1174ZM764 285Q849 285 876 305T903 379Q903 432 875 452T764 473H494V285H764ZM733 698Q813 698 842 716T872 788Q872 842 842 859T733 877H494V698H733Z"/><glyph unicode="г" horiz-adv-x="1151" d="M113 1174H1106V829H518V0H113V1174Z"/><glyph unicode="д" horiz-adv-x="1630" d="M80 338H115Q177 338 198 356T219 442V1174H1411V338H1550V-340H1171V0H459V-340H80V338ZM1012 315V838H625V414Q625 344 596 315H1012Z"/><glyph unicode="е" horiz-adv-x="1294" d="M692 -23Q367 -23 212 123T57 590Q57 808 128 940T340 1136T692 1200Q965 1200 1096 1072T1236 649L1237 560L1235 449H450Q467 373 524 338T692 303Q806 303 894 327T1055 406L1257 145Q1140 54 1011 16T692 -23ZM866 688Q862 764 844 797T787 847T680 864Q572 864 517 825T448 698L446 688H866Z"/><glyph unicode="ж" horiz-adv-x="1960" d="M791 1174H1169V776L1487 1174H1929L1546 700L1960 0H1509L1273 391L1169 266V0H791V266L686 391L451 0H0L413 700L31 1174H473L791 776V1174Z"/><glyph unicode="з" horiz-adv-x="1294" d="M623 -25Q433 -25 273 11T12 113L178 389Q373 285 565 285Q685 285 726 292T784 319T801 379Q801 414 785 430T728 452T555 459H287V735H551Q669 735 703 741T751 763T766 813Q766 856 727 870T559 885Q473 885 375 865T225 813L39 1081Q128 1135 298 1167T631 1200Q918 1200 1050 1129T1182 911Q1182 800 1153 738T1044 639Q1139 612 1175 540T1212 342Q1212 156 1074 66T623 -25Z"/><glyph unicode="и" horiz-adv-x="1432" d="M113 1174H508V643L885 1174H1319V0H924V623L477 0H113V1174Z"/><glyph unicode="й" horiz-adv-x="1432" d="M113 1174H508V643L885 1174H1319V0H924V623L477 0H113V1174ZM715 1260Q574 1260 482 1306T335 1445T246 1714L535 1767Q560 1646 595 1608T715 1569Q798 1569 833 1606T895 1767L1188 1716Q1151 1535 1095 1443T946 1306T715 1260Z"/><glyph unicode="к" horiz-adv-x="1305" d="M113 1174H514V777L831 1174H1274L891 699L1305 0H854L618 390L514 266V0H113V1174Z"/><glyph unicode="л" horiz-adv-x="1530" d="M80 338H115Q180 338 202 358T225 442V1174H1417V0H1012V838H625V391Q625 250 588 164T476 37T264 -4Q128 -4 80 4V338Z"/><glyph unicode="м" horiz-adv-x="1776" d="M113 1174H625L889 510L1153 1174H1663V0H1260V590L1038 0H711L492 594V0H113V1174Z"/><glyph unicode="н" horiz-adv-x="1423" d="M113 1174H518V786H905V1174H1311V0H905V422H518V0H113V1174Z"/><glyph unicode="о" horiz-adv-x="1386" d="M694 -23Q371 -23 214 127T57 590Q57 902 214 1051T694 1200Q1018 1200 1173 1052T1329 590Q1329 276 1174 127T694 -23ZM694 324Q813 324 867 381T922 578Q922 717 867 774T694 831Q612 831 562 804T490 726T467 578Q467 437 522 381T694 324Z"/><glyph unicode="п" horiz-adv-x="1417" d="M113 1174H1305V0H899V838H512V0H113V1174Z"/><glyph unicode="р" horiz-adv-x="1432" d="M113 1151L428 1176L459 1081Q528 1144 628 1172T870 1200Q1123 1200 1248 1053T1374 590Q1374 277 1241 130T846 -18Q613 -18 518 72V-338H113V1151ZM762 324Q834 324 878 350T942 428T963 573Q963 674 943 725T879 804T762 831Q635 831 577 772T518 573Q518 473 542 423T619 349T762 324Z"/><glyph unicode="с" horiz-adv-x="1227" d="M678 -18Q471 -18 334 44T127 238T57 590Q57 814 129 946T344 1139T698 1200Q1028 1200 1200 997L915 729Q858 789 810 809T696 829Q576 829 522 774T467 578Q467 435 522 380T700 324Q773 324 825 347T940 430L1198 184Q1073 66 962 24T678 -18Z"/><glyph unicode="т" horiz-adv-x="1274" d="M434 829H45V1174H1229V829H840V0H434V829Z"/><glyph unicode="у" horiz-adv-x="1253" d="M-14 1174H424L644 548L856 1174H1268L815 -18Q764 -157 702 -224T542 -320T283 -350L158 -346V-43H244Q321 -43 353 -38T402 -19T428 33L-14 1174Z"/><glyph unicode="ф" horiz-adv-x="2210" d="M911 74Q796 -23 569 -23Q57 -23 57 594Q57 1200 584 1200Q809 1200 911 1110V1589H1294V1108Q1392 1200 1649 1200Q1901 1200 2026 1052T2152 590Q2152 277 2019 130T1624 -18Q1391 -18 1296 72V-338H911V74ZM670 326Q791 326 851 387T911 594Q911 694 888 742T813 813T670 836Q598 836 554 811T490 738T469 594Q469 491 489 438T554 355T670 326ZM1540 324Q1612 324 1656 350T1720 428T1741 573Q1741 674 1721 725T1657 804T1540 831Q1415 831 1356 772T1296 573Q1296 473 1320 423T1397 349T1540 324Z"/><glyph unicode="х" horiz-adv-x="1288" d="M35 1174H489L665 916L827 1174H1255L872 613L1292 0H838L622 315L422 0H-6L417 615L35 1174Z"/><glyph unicode="ц" horiz-adv-x="1524" d="M1065 0H113V1174H518V326H905V1174H1305V338H1444V-340H1065V0Z"/><glyph unicode="ч" horiz-adv-x="1382" d="M866 336Q815 294 719 270T502 246Q352 246 260 296T125 450T82 737V1174H487V821Q487 738 503 702T555 646T653 627Q731 627 777 646T843 704T864 827V1174H1270V0H866V336Z"/><glyph unicode="ш" horiz-adv-x="2138" d="M113 1174H518V326H870V1174H1276V326H1626V1174H2025V0H113V1174Z"/><glyph unicode="щ" horiz-adv-x="2245" d="M1786 0H113V1174H518V326H870V1174H1276V326H1626V1174H2025V338H2165V-340H1786V0Z"/><glyph unicode="ъ" horiz-adv-x="1466" d="M219 829H80V1174H621V930H891Q1142 930 1268 821T1395 479Q1395 235 1264 118T870 0H219V829ZM803 311Q904 311 943 345T983 463Q983 551 944 583T803 616H621V311H803Z"/><glyph unicode="ы" horiz-adv-x="1870" d="M113 1174H514V930H784Q1034 930 1161 822T1288 479Q1288 236 1158 118T764 0H113V1174ZM696 311Q796 311 836 345T877 463Q877 551 838 583T696 616H514V311H696ZM1352 1174H1757V0H1352V1174Z"/><glyph unicode="ь" horiz-adv-x="1360" d="M113 1174H514V930H784Q1034 930 1161 822T1288 479Q1288 236 1158 118T764 0H113V1174ZM696 311Q796 311 836 345T877 463Q877 551 838 583T696 616H514V311H696Z"/><glyph unicode="э" horiz-adv-x="1227" d="M340 453V709H758Q740 783 687 816T530 850Q485 850 448 837T380 803T303 733L29 997Q201 1200 539 1200Q747 1200 887 1139T1098 945T1169 590Q1169 369 1101 239T895 45T549 -18Q373 -18 259 25T23 184L272 424Q329 369 387 347T532 324Q639 324 690 353T758 453H340Z"/><glyph unicode="ю" horiz-adv-x="1937" d="M113 1174H518V776H644Q678 990 826 1095T1245 1200Q1569 1200 1724 1052T1880 590Q1880 276 1725 127T1245 -23Q1058 -23 933 26T735 174T639 432H518V0H113V1174ZM1245 324Q1364 324 1418 381T1473 578Q1473 717 1418 774T1245 831Q1163 831 1113 804T1041 726T1018 578Q1018 437 1073 381T1245 324Z"/><glyph unicode="я" horiz-adv-x="1413" d="M899 297H699L539 0H104L298 357Q193 407 143 500T92 735Q92 963 222 1068T625 1174H1300V0H899V297ZM899 610V840H647Q568 840 537 814T506 723Q506 661 534 636T645 610H899Z"/><glyph unicode="ё" horiz-adv-x="1294" d="M692 -23Q367 -23 212 123T57 590Q57 808 128 940T340 1136T692 1200Q965 1200 1096 1072T1236 649L1237 560L1235 449H450Q467 373 524 338T692 303Q806 303 894 327T1055 406L1257 145Q1140 54 1011 16T692 -23ZM866 688Q862 764 844 797T787 847T680 864Q572 864 517 825T448 698L446 688H866ZM225 1597H590V1280H225V1597ZM707 1597H1071V1280H707V1597Z"/><glyph unicode="ђ" horiz-adv-x="1407" d="M778 -43H809Q861 -43 877 -26T895 53V563Q895 647 879 683T828 739T729 758Q650 758 605 739T539 679T518 557V0H113V1182H0V1505H113V1589H516V1505H731V1182H516V1049Q567 1091 663 1115T881 1139Q1030 1139 1121 1088T1256 936T1300 647V0Q1300 -133 1258 -207T1125 -314T854 -348H778V-43Z"/><glyph unicode="ѓ" horiz-adv-x="1151" d="M113 1174H1106V829H518V0H113V1174ZM873 1686H1358L949 1280H595L873 1686Z"/><glyph unicode="є" horiz-adv-x="1227" d="M678 -18Q471 -18 334 44T127 238T57 590Q57 814 129 946T344 1139T698 1200Q1028 1200 1200 997L926 733Q875 787 846 806T779 837T696 850Q592 850 539 816T469 709H887V453H468Q486 382 538 353T700 324Q781 324 836 347T948 424L1198 184Q1073 66 962 24T678 -18Z"/><glyph unicode="ѕ" horiz-adv-x="1227" d="M596 -18Q426 -18 272 20T0 139L199 418Q281 363 398 328T621 293Q690 293 722 297T769 312T784 348Q784 375 753 387T627 410Q448 424 352 450T198 522T110 640T80 811Q80 1013 212 1106T627 1200Q786 1200 923 1172T1155 1090L973 791Q903 825 808 844T641 864Q557 864 521 854T485 809Q485 789 497 779T545 762T629 750Q807 731 881 715T1010 673T1102 608T1160 513T1180 377Q1180 229 1122 145T936 22T596 -18Z"/><glyph unicode="і" horiz-adv-x="657" d="M125 1174H530V0H125V1174ZM123 1589H532V1260H123V1589Z"/><glyph unicode="ї" horiz-adv-x="657" d="M-43 1597H281V1280H-43V1597ZM377 1597H700V1280H377V1597ZM125 1174H530V0H125V1174Z"/><glyph unicode="ј" horiz-adv-x="657" d="M8 -43H39Q79 -43 96 -34T119 0T125 92V1174H530V94Q530 -91 492 -181T363 -309T84 -348H8V-43ZM123 1589H532V1260H123V1589Z"/><glyph unicode="љ" horiz-adv-x="2251" d="M80 338H115Q180 338 202 358T225 442V1174H1405V930H1675Q1925 930 2052 822T2179 479Q2179 236 2049 118T1655 0H1012V838H625V391Q625 250 588 164T476 37T264 -4Q128 -4 80 4V338ZM1587 311Q1688 311 1727 345T1767 463Q1767 551 1728 583T1587 616H1405V311H1587Z"/><glyph unicode="њ" horiz-adv-x="2144" d="M113 1174H518V786H905V1174H1298V930H1569Q1820 930 1946 821T2073 479Q2073 236 1942 118T1548 0H905V422H518V0H113V1174ZM1481 311Q1582 311 1621 345T1661 463Q1661 551 1622 583T1481 616H1298V311H1481Z"/><glyph unicode="ћ" horiz-adv-x="1407" d="M0 1505H113V1589H516V1505H731V1182H516V1049Q567 1091 663 1115T881 1139Q1030 1139 1121 1088T1256 936T1300 647V0H895V563Q895 647 879 683T828 739T729 758Q650 758 605 739T539 679T518 557V0H113V1182H0V1505Z"/><glyph unicode="ќ" horiz-adv-x="1305" d="M113 1174H514V777L831 1174H1274L891 699L1305 0H854L618 390L514 266V0H113V1174ZM692 1686H1177L768 1280H414L692 1686Z"/><glyph unicode="ў" horiz-adv-x="1253" d="M-14 1174H424L644 548L856 1174H1268L815 -18Q764 -157 702 -224T542 -320T283 -350L158 -346V-43H244Q321 -43 353 -38T402 -19T428 33L-14 1174ZM627 1260Q486 1260 394 1306T247 1445T158 1714L447 1767Q472 1646 507 1608T627 1569Q710 1569 745 1606T807 1767L1100 1716Q1063 1535 1007 1443T858 1306T627 1260Z"/><glyph unicode="џ" horiz-adv-x="1417" d="M518 0H113V1174H518V326H905V1174H1305V0H897V-340H518V0Z"/><glyph unicode="Ґ" horiz-adv-x="1296" d="M139 1518H854V1858H1280V1135H563V0H139V1518Z"/><glyph unicode="ґ" horiz-adv-x="1151" d="M113 1174H727V1518H1106V829H518V0H113V1174Z"/><glyph unicode="–" horiz-adv-x="1579" d="M63 874H1513V514H63V874Z"/><glyph unicode="—" horiz-adv-x="2013" d="M63 874H1950V514H63V874Z"/><glyph unicode="‘" horiz-adv-x="657" d="M98 993Q98 1170 126 1253T222 1396T442 1520L539 1323Q435 1275 404 1253T358 1204T344 1128H557V688H98V993Z"/><glyph unicode="’" horiz-adv-x="657" d="M119 881Q208 920 245 944T296 996T311 1075H98V1518H557V1210Q557 1038 532 955T439 813T213 686L119 881Z"/><glyph unicode="‚" horiz-adv-x="657" d="M119 -195Q208 -156 244 -132T296 -80T311 0H98V442H557V133Q557 -34 528 -119T427 -268T213 -391L119 -195Z"/><glyph unicode="“" horiz-adv-x="1206" d="M98 1008Q98 1177 125 1259T221 1400T434 1518L524 1327Q431 1284 398 1262T352 1213T338 1139H545V709H98V1008ZM662 1008Q662 1185 690 1266T788 1404T995 1518L1087 1327Q990 1282 958 1260T913 1213T899 1139H1106V709H662V1008Z"/><glyph unicode="”" horiz-adv-x="1206" d="M119 899Q204 938 241 963T293 1013T307 1090H98V1518H545V1221Q545 1044 518 965T423 829T209 709L119 899ZM680 899Q765 938 802 963T854 1013T868 1090H662V1518H1106V1221Q1106 1043 1078 963T982 826T772 709L680 899Z"/><glyph unicode="„" horiz-adv-x="1206" d="M119 -190Q204 -152 241 -128T292 -77T307 0H98V428H545V131Q545 -39 515 -121T414 -263T209 -379L119 -190ZM680 -190Q765 -152 802 -128T853 -77T868 0H662V428H1106V131Q1106 -38 1077 -120T978 -262T774 -379L680 -190Z"/><glyph unicode="†" horiz-adv-x="1284" d="M440 762H84V1126H440V1589H842V1126H1200V762H842V-340H440V762Z"/><glyph unicode="‡" horiz-adv-x="1284" d="M440 123H84V487H440V762H84V1126H440V1589H842V1126H1200V762H842V487H1200V123H842V-340H440V123Z"/><glyph unicode="•" horiz-adv-x="844" d="M170 893H674V352H170V893Z"/><glyph unicode="…" horiz-adv-x="1892" d="M98 442H557V0H98V442ZM717 442H1176V0H717V442ZM1335 442H1792V0H1335V442Z"/><glyph unicode="‰" horiz-adv-x="3813" d="M580 514Q328 514 191 647T53 1030Q53 1275 191 1408T580 1542Q827 1542 963 1408T1100 1030Q1100 782 963 648T580 514ZM580 815Q667 815 703 870T739 1030Q739 1129 703 1181T580 1233Q492 1233 453 1182T414 1030Q414 926 452 871T580 815ZM2122 -18Q1871 -18 1734 116T1597 500Q1597 743 1734 877T2122 1012Q2370 1012 2507 877T2644 500Q2644 254 2508 118T2122 -18ZM2122 283Q2209 283 2246 338T2284 500Q2284 597 2246 648T2122 700Q2035 700 1997 650T1958 500Q1958 393 1996 338T2122 283ZM3238 -18Q2985 -18 2850 117T2714 500Q2714 742 2850 877T3238 1012Q3486 1012 3623 877T3760 500Q3760 254 3624 118T3238 -18ZM3238 283Q3326 283 3363 338T3400 500Q3400 597 3363 648T3238 700Q3151 700 3113 650T3074 500Q3074 393 3112 338T3238 283ZM1585 1520H1960L1110 0H735L1585 1520Z"/><glyph unicode="‹" horiz-adv-x="1061" d="M164 586L473 1174H836L559 586L836 0H473L164 586Z"/><glyph unicode="›" horiz-adv-x="1061" d="M502 588L225 1174H588L897 588L588 0H225L502 588Z"/><glyph unicode="⁄" horiz-adv-x="1202" d="M850 1518H1204L354 0H0L850 1518Z"/><glyph unicode="€" horiz-adv-x="1528" d="M49 696H288L287 760V778H49V1004H305Q348 1274 509 1408T958 1542Q1069 1542 1149 1534T1292 1508T1440 1448L1260 1114Q1136 1182 969 1182Q853 1182 789 1138T699 1004H1087V778H678V768L679 696H1087V471H720Q784 322 963 322Q1132 322 1264 401L1450 96Q1340 30 1222 3T942 -25Q694 -25 538 92T323 438L315 471H49V696Z"/><glyph unicode="№" horiz-adv-x="3041" d="M139 1518H594L1186 715V1518H1591V0H1200L545 887V0H139V1518ZM2273 551Q2011 551 1884 673T1757 1049Q1757 1299 1882 1420T2273 1542Q2536 1542 2661 1422T2787 1049Q2787 793 2660 672T2273 551ZM2273 831Q2367 831 2412 879T2458 1038Q2458 1149 2412 1196T2273 1243Q2181 1243 2135 1195T2089 1038Q2089 930 2134 881T2273 831ZM1819 481H2726V197H1819V481Z"/><glyph unicode="™" horiz-adv-x="2310" d="M1040 1518H1380L1589 952L1798 1518H2138V567H1845V1026L1681 567H1489L1325 1028V567H1040V1518ZM377 1253H82V1518H973V1253H678V567H377V1253Z"/><glyph unicode="Ω" horiz-adv-x="1664" d="M832 1376Q644 1376 510 1234T376 836Q376 592 464 432T724 180V0H88V196H536Q416 240 304 406T192 848Q192 1112 358 1330T832 1548Q1140 1548 1306 1338T1472 848Q1472 572 1360 406T1128 196H1576V0H940V180Q1112 272 1200 432T1288 836Q1288 1044 1162 1210T832 1376Z"/><glyph unicode="∂" horiz-adv-x="1280" d="M476 -32Q276 -32 166 80T56 360Q56 580 214 750T604 920Q700 920 802 886T964 816Q976 900 976 984Q976 1172 908 1278T720 1384Q592 1384 518 1356T368 1280L324 1444Q400 1488 492 1518T720 1548Q956 1548 1064 1394T1172 968Q1172 552 968 260T476 -32ZM488 128Q831 128 944 684Q912 716 824 748T648 780Q456 780 360 654T264 372Q264 264 318 196T488 128Z"/><glyph unicode="∆" horiz-adv-x="1536" d="M76 0L652 1536H884L1456 0H76ZM352 148H1164L752 1256L352 148Z"/><glyph unicode="∏" horiz-adv-x="1536" d="M332 0V1348H80V1524H1456V1348H1212V0H1004V1356H540V0H332Z"/><glyph unicode="∑" horiz-adv-x="1152" d="M1084 1524V1344H332L796 784L304 188H1080V0H40V172L560 788L68 1380V1524H1084Z"/><glyph unicode="−" horiz-adv-x="1507" d="M176 903H1331V541H176V903Z"/><glyph unicode="∕" horiz-adv-x="1202" d="M850 1518H1204L354 0H0L850 1518Z"/><glyph unicode="∙" horiz-adv-x="657" d="M98 1016H557V561H98V1016Z"/><glyph unicode="√" horiz-adv-x="1446" d="M31 954H459L635 477L1014 1518H1415L834 -12H410L31 954Z"/><glyph unicode="∞" horiz-adv-x="1874" d="M539 315Q326 315 214 415T102 705Q102 894 214 995T539 1096Q745 1096 943 910Q1141 1096 1337 1096Q1550 1096 1661 996T1772 705Q1772 515 1658 415T1337 315Q1131 315 934 500Q815 395 723 355T539 315ZM549 805Q418 805 418 705Q418 655 449 631T549 606Q628 606 734 703Q673 760 633 782T549 805ZM1329 606Q1395 606 1425 629T1456 705Q1456 757 1427 781T1329 805Q1251 805 1144 707Q1199 656 1242 631T1329 606Z"/><glyph unicode="∫" horiz-adv-x="1152" d="M-8 -392L56 -260Q116 -280 164 -280Q212 -280 242 -246T288 -112L516 1224Q572 1544 880 1544Q972 1544 1042 1522T1152 1476L1088 1304Q969 1380 868 1380Q776 1380 730 1322T672 1188L448 -224Q428 -332 350 -382T176 -432Q116 -432 66 -420T-8 -392Z"/><glyph unicode="≈" horiz-adv-x="1536" d="M236 400Q228 444 228 480Q228 580 288 652T476 724Q576 724 650 696T788 642T912 598T1020 580Q1096 580 1128 610T1160 684L1156 716H1300Q1308 672 1308 636Q1308 536 1248 464T1060 392Q960 392 886 418T748 470T624 512T516 528Q440 528 408 500T376 432L380 400H236ZM236 860Q228 904 228 940Q228 1040 288 1112T476 1184Q576 1184 650 1156T788 1102T912 1058T1020 1040Q1096 1040 1128 1070T1160 1144L1156 1176H1300Q1308 1132 1308 1096Q1308 996 1248 924T1060 852Q960 852 886 878T748 930T624 972T516 988Q440 988 408 960T376 892L380 860H236Z"/><glyph unicode="≠" horiz-adv-x="1507" d="M383 279H188V629H555L641 815H188V1163H791L887 1368H1217L1120 1163H1319V815H950L864 629H1319V279H713L618 74H289L383 279Z"/><glyph unicode="≤" horiz-adv-x="1507" d="M233 348H797L236 614V866L1194 1319V952L662 731L1194 510V0H233V348Z"/><glyph unicode="≥" horiz-adv-x="1507" d="M313 510L846 731L313 952V1319L1272 866V614L710 348H1274V0H313V510Z"/><glyph unicode="◊" horiz-adv-x="1327" d="M-4 760L455 1518H850L1307 760L848 0H453L-4 760ZM899 754L649 1206L401 764L653 311L899 754Z"/><glyph unicode="" horiz-adv-x="1704" d="M338 1356Q441 1450 572 1502T852 1554Q1001 1554 1133 1502T1368 1356L1354 1339Q1254 1430 1126 1482T852 1534Q706 1534 579 1482T352 1339L338 1356ZM852 -35Q703 -35 571 18T336 164L350 180Q450 89 578 38T852 -14Q997 -14 1124 37T1352 178L1359 172L1366 164Q1263 70 1132 18T852 -35ZM1430 260Q1610 476 1610 760Q1610 1042 1430 1260L1446 1274Q1533 1171 1581 1040T1630 760Q1630 613 1582 482T1446 246L1430 260ZM258 246Q171 349 123 480T74 760Q74 906 122 1037T258 1272L262 1269L272 1260Q94 1039 94 760Q94 476 274 260L258 246ZM852 123Q613 123 440 281L447 289L455 295Q626 143 852 143Q967 143 1068 183T1247 295L1262 279Q1180 206 1076 165T852 123ZM1249 1223Q1171 1295 1070 1335T852 1376Q625 1376 455 1225L440 1239Q619 1397 852 1397Q1085 1397 1264 1239L1249 1223ZM375 348Q227 530 227 760Q227 877 266 981T373 1169L389 1155Q323 1075 286 974T248 760Q248 535 389 362L375 348ZM1329 350L1315 362Q1456 537 1456 760Q1456 987 1313 1155L1329 1169Q1398 1086 1437 982T1477 760Q1477 530 1329 350ZM1167 1130Q1033 1251 852 1251Q674 1251 539 1133L524 1147Q664 1272 852 1272Q1042 1272 1182 1147L1167 1130ZM852 248Q662 248 522 373L537 389Q671 268 852 268Q1033 268 1165 389L1180 373Q1042 248 852 248ZM1237 432L1221 446Q1333 581 1333 760Q1333 942 1221 1073L1237 1087Q1354 949 1354 760Q1354 570 1237 432ZM467 432Q350 575 350 760Q350 942 465 1087L481 1073Q371 937 371 760Q371 579 481 446L467 432ZM852 348Q704 348 588 449L602 463Q709 369 852 369Q996 369 1100 463L1114 446Q1001 348 852 348ZM1163 498L1147 512Q1235 619 1235 760Q1235 901 1147 1008L1163 1022Q1255 909 1255 760Q1255 611 1163 498ZM541 498Q449 611 449 760Q449 909 541 1022L557 1008Q469 901 469 760Q469 619 557 512L541 498ZM590 1073Q698 1171 852 1171Q1004 1171 1114 1071L1109 1064L1102 1057Q995 1151 852 1151Q708 1151 604 1057L590 1073ZM1106 551L1090 565Q1157 654 1157 760Q1157 867 1087 954L1104 969Q1178 876 1178 760Q1178 642 1106 551ZM641 1014Q732 1092 852 1092Q970 1092 1061 1012L1049 997Q962 1071 852 1071Q744 1071 655 997L641 1014ZM852 428Q737 428 641 506L655 522Q743 449 852 449Q961 449 1049 522L1061 506Q967 428 852 428ZM598 551Q526 642 526 760Q526 876 600 969L614 954Q547 868 547 760Q547 651 614 565L598 551ZM1042 608Q1094 678 1094 760Q1094 844 1040 913L1057 928Q1114 856 1114 760Q1114 663 1057 594L1042 608ZM647 592Q590 664 590 760Q590 857 647 926L662 911Q610 841 610 760Q610 675 664 606L647 592ZM852 492Q754 492 682 553L696 569Q766 512 852 512Q938 512 1006 569L1020 555Q946 492 852 492ZM684 965Q758 1028 852 1028Q948 1028 1020 967L1006 950Q937 1008 852 1008Q764 1008 698 950L684 965ZM733 911L717 928Q777 977 852 977Q927 977 987 928L971 911Q920 956 852 956Q784 956 733 911ZM684 627Q641 687 641 760Q641 833 684 893L700 879Q662 826 662 760Q662 696 700 643L684 627ZM852 543Q777 543 717 592L731 608Q785 563 852 563Q917 563 971 608L985 592Q925 543 852 543ZM1020 627L1004 641Q1042 694 1042 760Q1042 826 1004 879L1018 893Q1063 836 1063 760Q1063 689 1020 627Z"/><glyph unicode="ﬀ" horiz-adv-x="1753" d="M1049 829H672V0H266V829H45V1174H266V1196Q266 1362 316 1455T472 1593T758 1638Q860 1638 894 1635L926 1632V1303H813Q730 1303 701 1281T672 1198V1174H1049V1196Q1049 1363 1098 1456T1254 1593T1540 1638Q1642 1638 1676 1635L1708 1632V1303H1595Q1513 1303 1484 1281T1454 1198V1174H1708V829H1454V0H1049V829Z"/><glyph unicode="ﬁ" horiz-adv-x="1581" d="M45 1174H266V1196Q266 1362 316 1455T472 1593T758 1638Q860 1638 894 1635L926 1632V1303H813Q730 1303 701 1281T672 1198V1174H926V829H672V0H266V829H45V1174ZM1049 1174H1454V0H1049V1174ZM1047 1589H1458V1260H1047V1589Z"/><glyph unicode="ﬂ" horiz-adv-x="1669" d="M45 1174H266V1196Q266 1362 316 1455T472 1593T758 1638Q860 1638 894 1635L926 1632V1303H813Q730 1303 701 1281T672 1198V1174H926V829H672V0H266V829H45V1174ZM1409 -4Q1273 -4 1199 36T1087 162T1049 391V1589H1454V442Q1454 379 1475 359T1559 338H1593V4Q1582 2 1513 -2T1409 -4Z"/><glyph unicode="ﬃ" horiz-adv-x="2363" d="M1049 829H672V0H266V829H45V1174H266V1196Q266 1362 316 1455T472 1593T758 1638Q860 1638 894 1635L926 1632V1303H813Q730 1303 701 1281T672 1198V1174H1049V1196Q1049 1363 1098 1456T1254 1593T1540 1638Q1642 1638 1676 1635L1708 1632V1303H1595Q1513 1303 1484 1281T1454 1198V1174H1708V829H1454V0H1049V829ZM1831 1174H2236V0H1831V1174ZM1829 1589H2241V1260H1829V1589Z"/><glyph unicode="ﬄ" horiz-adv-x="2456" d="M1049 829H672V0H266V829H45V1174H266V1196Q266 1362 316 1455T472 1593T758 1638Q860 1638 894 1635L926 1632V1303H813Q730 1303 701 1281T672 1198V1174H1049V1196Q1049 1363 1098 1456T1254 1593T1540 1638Q1642 1638 1676 1635L1708 1632V1303H1595Q1513 1303 1484 1281T1454 1198V1174H1708V829H1454V0H1049V829ZM2191 -4Q2055 -4 1981 36T1869 162T1831 391V1589H2236V442Q2236 379 2257 359T2341 338H2376V4Q2328 -4 2191 -4Z"/></font>
</defs>
</svg>
