<?xml version="1.0" standalone="no"?>
<!DOCTYPE svg PUBLIC "-//W3C//DTD SVG 1.1//EN" "http://www.w3.org/Graphics/SVG/1.1/DTD/svg11.dtd" >
<svg xmlns="http://www.w3.org/2000/svg">
<metadata></metadata>
<defs>
<font id="hackmanmedium" horiz-adv-x="673" >
<font-face units-per-em="1000" ascent="750" descent="-250" />
<missing-glyph horiz-adv-x="300" />
<glyph unicode="&#xfb01;" horiz-adv-x="655" d="M119 500v28q0 124 73 162q37 20 98 20q50 0 128 -14l-10 -57q-62 9 -91 9q-33 0 -55 -9q-21 -6 -34 -18.5t-20 -35.5t-7 -57v-28h378v-500h-81v438h-297v-438h-82v438h-97v62h97zM581 592h-85v103h85v-103z" />
<glyph unicode="&#xfb02;" horiz-adv-x="748" d="M119 500v28q0 124 73 162q37 20 98 20q41 0 103 -10h184v-554q0 -54 15.5 -74t51.5 -20q23 0 62 9l10 -57q-64 -14 -102 -14q-62 1 -90 36t-28 116v497h-88q-62 9 -91 9q-33 0 -55 -9q-21 -6 -34 -18.5t-20 -35.5t-7 -57v-28h185v-62h-185v-438h-82v438h-97v62h97z" />
<glyph horiz-adv-x="0" />
<glyph horiz-adv-x="333" />
<glyph unicode=" "  horiz-adv-x="300" />
<glyph unicode="&#x09;" horiz-adv-x="300" />
<glyph unicode="&#xa0;" horiz-adv-x="300" />
<glyph unicode="!" horiz-adv-x="172" d="M121 190h-70l-8 510h86zM129 2h-86v120h86v-120z" />
<glyph unicode="&#x22;" horiz-adv-x="334" d="M108 544h-59l-7 206h74zM285 544h-59l-7 206h73z" />
<glyph unicode="#" horiz-adv-x="671" d="M530 514h98v-58h-107l-30 -188h99v-58h-108l-34 -210h-72l34 210h-194l-33 -210h-72l33 210h-102v58h111l30 188h-103v58h112l30 186h72l-30 -186h194l29 186h72zM255 456l-29 -188h193l29 188h-193z" />
<glyph unicode="$" horiz-adv-x="581" d="M327 786v-79q90 -2 186 -28l-13 -67q-110 29 -205 29q-83 0 -126.5 -24.5t-43.5 -87.5q0 -37 15.5 -57t52.5 -34.5t117 -32.5q34 -7 55.5 -12.5t47 -13.5t40 -15.5t31 -19t25 -25t16.5 -31t11 -40t3 -50.5q0 -41 -12 -74.5t-31.5 -55.5t-47.5 -38t-57.5 -24.5 t-63.5 -11.5v-81h-76v79h-16q-77 2 -191 20l12 69q117 -22 207 -22q39 0 71 7t60.5 22t44.5 43.5t16 68.5q0 68 -49 94q-30 17 -140 39q-133 30 -178 68.5t-45 122.5q0 91 53.5 132t154.5 48v82h76z" />
<glyph unicode="%" horiz-adv-x="869" d="M229 -17h-79l492 734h80zM191 710q30 0 54 -6.5t40 -19t27 -28t16.5 -37.5t8 -44.5t2.5 -50.5q0 -43 -6 -73.5t-21 -57.5t-45.5 -41t-76 -14t-76 14t-45.5 41t-21 57.5t-6 74t6 74t21 57.5t45.5 40.5t76.5 13.5zM190.5 655q-52.5 0 -70 -31t-17.5 -100t17.5 -99.5 t70 -30.5t70 30.5t17.5 99.5t-17.5 100t-70 31zM677 362q46 0 77 -13.5t46 -40.5t21 -57.5t6 -74.5q0 -43 -6 -74t-21 -58t-45.5 -40.5t-75.5 -13.5q-37 0 -64 9.5t-43 25.5t-25.5 40.5t-13 50.5t-3.5 60q0 43 6 74t21 58t45 40.5t75 13.5zM679 306q-53 0 -70.5 -30.5 t-17.5 -99.5t17.5 -100t70 -31t70 31t17.5 100q0 34 -3.5 56.5t-12.5 40t-26.5 25.5t-44.5 8z" />
<glyph unicode="&#x26;" horiz-adv-x="723" d="M212 376l-75 78q-13 13 -20.5 25.5t-10.5 26t-4 22t-1 22.5q0 69 46.5 109t138.5 40q89 0 135.5 -37t46.5 -107q0 -29 -9.5 -48.5t-32.5 -39.5l-106 -94l182 -189q38 64 38 158h70q0 -127 -52 -216l123 -127h-105l-66 68q-82 -89 -217 -89q-251 0 -251 180q0 69 48 111z M269 425l100 89q20 17 20 46q0 42 -25 62t-80 20q-107 0 -107 -84q0 -13 1 -20.5t5 -17t12 -18.5zM263 323l-105 -93q-32 -28 -32 -72q0 -57 41 -85t128 -28q110 0 166 74z" />
<glyph unicode="'" horiz-adv-x="158" d="M108 544h-59l-7 206h74z" />
<glyph unicode="(" horiz-adv-x="258" d="M173 740l43 -49q-55 -48 -72.5 -101t-17.5 -163v-269q0 -101 17.5 -152.5t72.5 -98.5l-43 -49q-76 52 -103.5 116.5t-27.5 183.5v269q0 129 27.5 194.5t103.5 118.5z" />
<glyph unicode=")" horiz-adv-x="258" d="M42 691l43 49q52 -36 80 -76t39.5 -95t11.5 -142v-269q0 -119 -27.5 -183.5t-103.5 -116.5l-43 49q55 47 72.5 98.5t17.5 152.5v269q0 110 -17.5 163t-72.5 101z" />
<glyph unicode="*" horiz-adv-x="444" d="M249 574l135 44l17 -51l-136 -44l84 -116l-43 -31l-84 115l-84 -115l-44 31l84 116l-136 44l17 51l136 -44v143h54v-143z" />
<glyph unicode="+" horiz-adv-x="534" d="M301 324h190v-67h-190v-191h-69v191h-190v67h190v191h69v-191z" />
<glyph unicode="," horiz-adv-x="212" d="M116 -91h-74l44 206h83z" />
<glyph unicode="-" horiz-adv-x="404" d="M362 258h-320v67h320v-67z" />
<glyph unicode="." horiz-adv-x="171" d="M129 0h-87v120h87v-120z" />
<glyph unicode="/" horiz-adv-x="399" d="M117 -17h-78l242 734h79z" />
<glyph unicode="0" horiz-adv-x="652" d="M326 689q66 0 114 -17t76.5 -45.5t45 -74.5t22 -95t5.5 -117t-5.5 -117t-22 -95.5t-45 -75t-76.5 -45.5t-114 -17q-48 0 -85.5 8.5t-65 24t-47.5 40t-32.5 52t-20 65t-10 75t-2.5 85.5q0 68 5.5 117t22 95t45.5 74.5t76.5 45.5t113.5 17zM326 623q-45 0 -77 -11.5 t-52 -32t-31.5 -56.5t-15.5 -78.5t-4 -104.5t4 -104.5t15.5 -78.5t31.5 -56.5t52 -32t77 -11.5t77 11.5t52 32t31.5 56.5t15.5 78.5t4 104.5q0 38 -1.5 68t-5 58t-10 49t-16.5 39t-23.5 30.5t-31.5 21.5t-40.5 13t-51.5 4z" />
<glyph unicode="1" horiz-adv-x="414" d="M330 0h-83v579l-175 -116l-41 59l239 158h60v-680z" />
<glyph unicode="2" horiz-adv-x="530" d="M62 590l-14 66q34 12 91.5 23t115.5 11q50 0 89.5 -9t70.5 -30t47.5 -58t16.5 -90q0 -40 -7.5 -67t-28.5 -49t-57 -37.5t-94 -28.5q-90 -19 -127 -54t-37 -115v-85h352v-67h-435v152q0 106 56.5 160.5t173.5 78.5q77 16 99 37.5t22 74.5q0 67 -35.5 93.5t-107.5 26.5 q-68 0 -191 -33z" />
<glyph unicode="3" horiz-adv-x="553" d="M469 621l-212 -229q41 8 75 8h20q147 -16 147 -195q0 -115 -57.5 -164.5t-192.5 -50.5q-79 0 -207 18l11 64q131 -16 182 -16q102 0 141.5 34.5t39.5 114.5q0 144 -125 144q-51 0 -124 -24l-25 46l227 242h-310v67h410v-59z" />
<glyph unicode="4" horiz-adv-x="604" d="M461 245h93v-67h-93v-178h-83v178h-338v54l311 448h110v-435zM128 245h250v355z" />
<glyph unicode="5" horiz-adv-x="550" d="M478 613h-322v-207q86 25 147 25q199 0 199 -226q0 -115 -57 -164.5t-188 -50.5q-76 0 -207 19l11 67q132 -19 184 -19q99 0 136.5 34t37.5 114q0 57 -14.5 92.5t-42.5 51.5t-70 16q-66 0 -190 -43l-29 45v313h405v-67z" />
<glyph unicode="6" horiz-adv-x="592" d="M523 670l-11 -67q-128 20 -187 20q-64 0 -100 -20t-55.5 -72t-22.5 -148q131 45 204 45q188 0 188 -222q0 -52 -10 -89t-35.5 -67t-72 -45t-115.5 -15q-45 0 -80.5 9t-60.5 25t-43.5 41t-29.5 52.5t-18 65.5t-9 74t-2 83q0 102 16 170.5t50 107.5t80.5 55t114.5 16 q70 0 199 -19zM333 365q-35 0 -73 -9t-113 -35q0 -38 1.5 -67t6 -57.5t12 -49t19.5 -38.5t28.5 -29t39.5 -17t52 -6q88 0 119 35t31 114q0 57 -14 92.5t-41 51t-68 15.5z" />
<glyph unicode="7" horiz-adv-x="516" d="M483 622l-274 -622h-88l270 614h-352v66h444v-58z" />
<glyph unicode="8" horiz-adv-x="601" d="M80 498v23q0 81 55 124.5t165 43.5q113 0 167.5 -44t54.5 -124v-23q0 -108 -104 -138q120 -28 120 -146v-55q0 -83 -57 -126t-181 -43q-64 0 -110 11.5t-73.5 34t-40.5 52.5t-13 71v55q0 118 121 147q-104 29 -104 137zM440 501v18q0 52 -32.5 78t-106.5 26 q-73 0 -106 -26t-33 -78v-18q0 -51 32.5 -77.5t106.5 -26.5q37 0 63.5 6.5t43 20t24.5 32.5t8 45zM459 163v46q0 38 -14 63.5t-50 41t-95 15.5q-84 0 -121 -31t-37 -89v-46q0 -55 35.5 -81.5t122.5 -26.5t123 26t36 82z" />
<glyph unicode="9" horiz-adv-x="595" d="M73 10l10 66q128 -19 187 -19q64 0 100 19.5t56 72t22 147.5q-130 -44 -204 -44q-188 0 -188 222q0 52 10.5 89t35.5 66.5t71.5 44.5t115.5 15q45 0 80.5 -9t60.5 -24.5t43.5 -40.5t30 -53t18 -65.5t8.5 -74t2 -82.5q0 -82 -10.5 -141.5t-30.5 -99.5t-52.5 -64 t-72.5 -34.5t-94 -10.5q-63 0 -199 20zM289 623q-45 0 -75 -9.5t-46.5 -29t-22.5 -45.5t-6 -66q0 -56 14 -91.5t41 -51t68 -15.5q35 0 73 9t113 35q0 53 -3.5 91t-13 72.5t-27 55t-46 33t-69.5 12.5z" />
<glyph unicode=":" horiz-adv-x="171" d="M129 385h-86v120h86v-120zM129 0h-87v120h87v-120z" />
<glyph unicode=";" horiz-adv-x="215" d="M172 385h-86v120h86v-120zM116 -91h-74l44 206h83z" />
<glyph unicode="&#x3c;" horiz-adv-x="564" d="M522 417l-396 -154l396 -154v-75l-480 193v72l480 192v-74z" />
<glyph unicode="=" horiz-adv-x="571" d="M529 322h-487v67h487v-67zM529 111h-487v67h487v-67z" />
<glyph unicode="&#x3e;" horiz-adv-x="564" d="M522 299v-72l-480 -193v75l396 154l-396 154v74z" />
<glyph unicode="?" horiz-adv-x="497" d="M55 615l-13 67q97 28 187 28q52 0 91 -9.5t70 -30t47.5 -58t16.5 -89.5q0 -33 -10.5 -59.5t-32.5 -45.5t-39 -29.5t-46 -24.5q-2 -1 -7 -4q-18 -8 -27 -13t-22.5 -14.5t-20 -18.5t-12 -22.5t-5.5 -29.5v-72h-83v72q0 27 9 50t20.5 37.5t32.5 30t34 22.5t37 18q5 2 7 4 q21 10 32.5 17t24.5 19t19 27t6 36q0 66 -36 93t-107 27q-63 0 -173 -28zM234 4h-87v118h87v-118z" />
<glyph unicode="@" horiz-adv-x="775" d="M622 18l15 -57q-95 -68 -249 -68q-127 0 -201.5 40.5t-109.5 132.5t-35 249q0 87 15 153t43.5 112t71 75t95.5 42t121 13q84 0 146.5 -21t108 -67t68 -122.5t22.5 -184.5q0 -40 -7.5 -71.5t-18.5 -52.5t-30 -35.5t-35.5 -22t-41.5 -11.5t-41 -4.5t-41 -0.5h-38l-3 28 q-86 -35 -139 -35q-127 0 -127 185q0 95 33.5 141t103.5 46q51 0 127 -25l2 22h54v-303h3q26 0 42.5 2.5t35.5 10.5t30 22.5t18 40.5t7 63q0 95 -17 160.5t-53.5 104t-86.5 55t-122 16.5t-122.5 -16.5t-86.5 -55t-53.5 -104t-17.5 -160.5q0 -108 14 -176.5t48 -111t85.5 -59 t132.5 -16.5q149 0 234 66zM466 189v223q-67 19 -107 19q-45 0 -64 -31.5t-19 -104.5q0 -74 18 -104.5t54 -30.5q39 0 118 29z" />
<glyph unicode="A" d="M642 0h-89l-62 172h-309l-62 -172h-89l259 700h93zM202 239h269l-134 372z" />
<glyph unicode="B" horiz-adv-x="631" d="M84 700h310q49 0 85.5 -17.5t58 -56.5t21.5 -95q0 -128 -84 -156q112 -28 112 -173q0 -202 -181 -202h-322v700zM168 634v-231h211q45 0 70 28.5t25 87.5q0 57 -25 86t-70 29h-211zM167 336v-269h228q52 0 81.5 33.5t29.5 101.5q0 67 -29.5 100.5t-81.5 33.5h-228z" />
<glyph unicode="C" horiz-adv-x="582" d="M523 82l12 -66q-121 -25 -200 -25q-66 1 -114 18.5t-84.5 58t-55 111.5t-18.5 172t18.5 171.5t55 111t84.5 58t114 18.5q79 0 200 -25l-12 -67q-122 25 -178 25q-68 0 -110 -25t-65.5 -90.5t-23.5 -177t23.5 -177t65.5 -90.5t110 -25q56 0 178 24z" />
<glyph unicode="D" horiz-adv-x="680" d="M84 700h240q61 0 108 -10.5t79 -33t53 -51t32.5 -70t16 -85t4.5 -100.5q0 -70 -6 -119.5t-25 -95.5t-51 -74t-85 -44.5t-126 -16.5h-240v700zM167 633v-566h157q53 0 90 10.5t61 31t37 56.5t17.5 78.5t4.5 106.5q0 45 -2.5 78t-8 64t-16 52.5t-26 39.5t-38 28t-52 15.5 t-67.5 5.5h-157z" />
<glyph unicode="E" horiz-adv-x="571" d="M518 633h-351v-231h329v-66h-329v-269h357v-67h-440v700h434v-67z" />
<glyph unicode="F" horiz-adv-x="554" d="M507 633h-340v-242h318v-67h-318v-324h-83v700h423v-67z" />
<glyph unicode="G" d="M593 396v-344q-150 -61 -258 -61q-46 0 -84.5 10t-74 35.5t-60 65.5t-39 103t-14.5 145q0 100 19 170.5t56.5 111.5t87.5 59t117 18q94 0 238 -36l-16 -65q-150 34 -216 34q-69 0 -112 -25.5t-67 -91t-24 -175.5q0 -69 10.5 -121t27.5 -84t42 -52t51.5 -27.5t57.5 -7.5 q67 0 175 37v234h-172v67h255z" />
<glyph unicode="H" horiz-adv-x="678" d="M593 0h-83v329h-343v-329h-83v700h83v-305h343v305h83v-700z" />
<glyph unicode="I" horiz-adv-x="239" d="M164 0h-83v700h83v-700z" />
<glyph unicode="J" horiz-adv-x="264" d="M180 700v-552q0 -94 -10 -150t-38 -91q-43 -52 -150 -65l-10 56q68 18 93 54q18 27 24.5 72t6.5 124v552h84z" />
<glyph unicode="K" horiz-adv-x="652" d="M368 416l242 -416h-91l-204 353l-148 -180v-173h-83v700h83v-415l336 415h99z" />
<glyph unicode="L" horiz-adv-x="532" d="M167 67h335v-67h-418v700h83v-633z" />
<glyph unicode="M" horiz-adv-x="877" d="M793 0h-83v574l-247 -475h-54l-247 475v-574h-83v700h104l253 -490l253 490h104v-700z" />
<glyph unicode="N" horiz-adv-x="700" d="M621 0h-88l-371 562v-562h-83v700h88l371 -562v562h83v-700z" />
<glyph unicode="O" horiz-adv-x="695" d="M347.5 708q53.5 0 95.5 -9t71.5 -24.5t51 -41t34 -53.5t20 -67t10 -76.5t2.5 -87t-2.5 -87t-10 -76.5t-20 -67t-34 -53.5t-51 -41t-71.5 -24.5t-95 -9q-38 0 -69.5 4t-57 13t-46.5 20.5t-36.5 28t-27.5 34t-20.5 41t-14 46.5t-8.5 52.5t-4 57t-1 61.5q0 50 2.5 87.5 t10 76.5t20 67t34 53.5t51.5 41t71.5 24.5t95 9zM347.5 641q-38.5 0 -67.5 -5.5t-50.5 -16t-36 -29.5t-24 -40.5t-14.5 -54t-7 -66t-2 -80.5t2 -80t7 -65.5t14.5 -54t24 -40.5t36 -29.5t50.5 -16t67.5 -5.5t67.5 5.5t50.5 16t36.5 29.5t24 40.5t14 54t7 65.5t2 80t-2 80.5 t-7 66t-14 54t-24 40.5t-36.5 29.5t-50.5 16t-67.5 5.5z" />
<glyph unicode="P" horiz-adv-x="625" d="M84 700h298q90 0 142 -56t52 -159q0 -105 -52.5 -160t-141.5 -55h-215v-270h-83v700zM168 633v-296h202q57 0 89.5 36.5t32.5 111.5q0 74 -32.5 111t-89.5 37h-202z" />
<glyph unicode="Q" horiz-adv-x="719" d="M620 -69l-298 62q-54 3 -95.5 16.5t-69.5 37t-47 52.5t-29 70.5t-14 83.5t-4 96q0 70 6.5 120.5t25 98t50.5 76.5t85 46.5t126.5 17.5t127 -17.5t85.5 -46.5t50.5 -76.5t25 -98t6.5 -120.5t-7 -120t-25 -95t-53 -73.5t-88 -42.5l153 -27zM356.5 641q-53.5 0 -90.5 -11.5 t-60.5 -33t-36.5 -59t-18 -81t-5 -107t5 -107t18 -81t36.5 -59t60.5 -33t91 -11.5q44 0 77.5 7.5t56.5 24t38 39t23.5 57t11.5 73t3 90.5q0 64 -4.5 107.5t-17.5 81t-36.5 59t-61 33t-91 11.5z" />
<glyph unicode="R" horiz-adv-x="653" d="M84 700h305q86 0 136 -54t50 -153q0 -82 -34 -131t-94 -62l154 -300h-90l-147 286h-197v-286h-83v700zM168 633v-280h208q54 0 85 34.5t31 106.5q0 69 -31 104t-85 35h-208z" />
<glyph unicode="S" horiz-adv-x="585" d="M44 12l12 69q116 -22 207 -22q38 0 70 7t60.5 22t44.5 43.5t16 68.5q0 18 -2.5 32t-9.5 25.5t-13 19.5t-20.5 15.5t-24.5 11.5t-32.5 10t-36.5 9t-44 9q-4 1 -6 1q-133 30 -178 68.5t-45 122.5q0 52 19 89t54.5 57.5t79.5 29t102 8.5q104 0 215 -29l-13 -67 q-110 29 -204 29q-84 0 -127 -24.5t-43 -87.5q0 -53 34.5 -76t149.5 -48q40 -9 63.5 -15t51 -15t43 -19t31.5 -24.5t23.5 -33t12 -43.5t4.5 -57q0 -47 -15.5 -84t-41 -60t-61 -38t-72 -20.5t-77.5 -5.5q-89 0 -227 22z" />
<glyph unicode="T" horiz-adv-x="572" d="M542 633h-214v-633h-84v633h-213v67h511v-67z" />
<glyph unicode="U" horiz-adv-x="690" d="M611 700v-387q0 -51 -2 -85.5t-8 -71t-17.5 -60t-31 -45.5t-47.5 -34t-67 -19t-90.5 -7t-90.5 7t-67 19t-47.5 34t-31 45.5t-17.5 60t-8 71t-2 85.5v387h83v-387q0 -43 1 -70t4 -55.5t8 -45t14.5 -33t22.5 -25t32 -15.5t42.5 -9t56 -2t56 2t43 9t32 15.5t22 25t14.5 33 t8 45t4 55.5t1 70v387h83z" />
<glyph unicode="V" horiz-adv-x="658" d="M378 0h-98l-249 700h89l209 -611l209 611h89z" />
<glyph unicode="W" horiz-adv-x="989" d="M773 0h-114l-164 572l-165 -572h-114l-182 700h87l154 -611l174 611h91l175 -611l153 611h88z" />
<glyph unicode="X" horiz-adv-x="657" d="M390 359l237 -359h-95l-202 305l-204 -305h-95l239 360l-224 340h95l190 -285l185 285h95z" />
<glyph unicode="Y" horiz-adv-x="654" d="M368 258v-258h-83v258l-254 442h92l204 -366l204 366h92z" />
<glyph unicode="Z" horiz-adv-x="586" d="M533 643l-379 -576h385v-67h-492v57l379 576h-365v67h472v-57z" />
<glyph unicode="[" horiz-adv-x="315" d="M267 667h-147v-715h153v-63h-231v841h225v-63z" />
<glyph unicode="\" horiz-adv-x="399" d="M360 -17h-78l-243 734h78z" />
<glyph unicode="]" horiz-adv-x="315" d="M273 -111h-231v63h153v715h-147v63h225v-841z" />
<glyph unicode="^" horiz-adv-x="573" d="M531 324h-94l-150 301l-151 -301h-94l194 376h101z" />
<glyph unicode="_" horiz-adv-x="545" d="M503 -143h-461v55h461v-55z" />
<glyph unicode="`" horiz-adv-x="253" d="M210 581h-64l-104 136h73z" />
<glyph unicode="a" horiz-adv-x="559" d="M94 427l-9 57q123 25 193 25q209 0 209 -175v-334h-62l-4 45q-123 -54 -212 -54q-49 0 -84 15.5t-56 52t-21 92.5q0 82 54 118t178 36q54 0 126 -7v36q0 114 -146 114q-47 0 -166 -21zM406 101v150q-72 7 -122 7q-49 0 -81 -6t-48.5 -20t-22.5 -31.5t-6 -45.5 q0 -103 101 -103q72 0 179 49z" />
<glyph unicode="b" horiz-adv-x="570" d="M155 750v-272q104 32 174 32q97 0 142.5 -63.5t45.5 -197.5q0 -132 -45 -195.5t-159 -63.5q-94 0 -239 47v713h81zM155 419v-340q99 -27 158 -27q68 0 95.5 45.5t27.5 151.5t-27.5 152t-95.5 46q-59 0 -158 -28z" />
<glyph unicode="c" horiz-adv-x="511" d="M455 70l11 -59q-116 -21 -188 -21q-122 1 -173.5 61.5t-51.5 198.5q0 139 52.5 199.5t175.5 60.5q73 0 185 -20l-11 -60q-109 19 -162 19q-47 0 -77.5 -11t-48.5 -36t-25.5 -61t-7.5 -91t7.5 -91t25.5 -61t48.5 -36t77.5 -11q53 0 162 19z" />
<glyph unicode="d" horiz-adv-x="570" d="M496 0h-62l-4 42q-127 -52 -203 -52q-174 0 -174 259q0 134 45.5 197.5t143.5 63.5q68 0 173 -32v272h81v-750zM415 95v324q-99 28 -158 28q-68 0 -95.5 -46t-27.5 -152q0 -73 13 -117t36 -62t59 -18q58 0 173 43z" />
<glyph unicode="e" horiz-adv-x="566" d="M495 88l12 -60q-133 -37 -225 -37q-79 0 -129.5 28t-75 85t-24.5 146q0 50 5 86t19.5 71t40.5 56t70 33.5t105 12.5q44 0 78.5 -6.5t58.5 -18t41 -30.5t27 -38.5t15 -48.5t7 -55t2 -62v-27h-387q1 -87 37 -128t119 -41q80 0 204 34zM134 270h306q0 42 -2.5 68t-11 50.5 t-24.5 37t-42.5 20t-66.5 7.5q-29 0 -51 -3.5t-39 -10.5t-29 -18.5t-19.5 -25.5t-12 -34t-6 -41t-2.5 -50z" />
<glyph unicode="f" horiz-adv-x="417" d="M119 500v28q0 124 73 162q37 20 98 20q50 0 128 -14l-10 -57q-62 9 -91 9q-33 0 -55 -9q-21 -6 -34 -18.5t-20 -35.5t-7 -57v-28h185v-62h-185v-438h-82v438h-97v62h97z" />
<glyph unicode="g" horiz-adv-x="607" d="M564 460h-120q67 -25 67 -103.5t-50.5 -116.5t-175.5 -38q-42 0 -74 6q-46 -39 -46 -66q0 -19 30 -29q45 8 110 8q102 0 159 -16.5t78.5 -47t21.5 -83.5q0 -49 -23.5 -80t-83 -48.5t-158.5 -17.5q-100 0 -158.5 15t-82 44t-23.5 77q0 43 22.5 71t70.5 37q-39 15 -39 49 q0 23 18.5 49t49.5 48q-36 11 -57.5 31t-30.5 46t-9 61q0 80 51 117t174 37q44 0 94 -4h185v-46zM285 456q-81 0 -115 -24t-34 -76q0 -51 33.5 -76t115.5 -25q56 0 89.5 12t47 33.5t13.5 55.5q0 52 -34.5 76t-115.5 24zM298 65q-105 0 -143 -21t-38 -70q0 -24 8 -40 t28 -27.5t56 -17t90.5 -5.5t90 5.5t55.5 17t28 27.5t8 40q0 32 -14 51t-54.5 29.5t-114.5 10.5z" />
<glyph unicode="h" horiz-adv-x="610" d="M160 750v-297q122 56 209 56q78 0 125 -40.5t47 -121.5v-347h-81v325q0 59 -28.5 90.5t-84.5 31.5q-71 0 -187 -54v-393h-81v750h81z" />
<glyph unicode="i" horiz-adv-x="238" d="M164 592h-85v103h85v-103zM162 0h-81v500h81v-500z" />
<glyph unicode="j" horiz-adv-x="236" d="M162 592h-85v103h85v-103zM160 500v-492q0 -121 -66 -166q-35 -24 -118 -32l-9 59q44 5 68 21q44 28 44 118v492h81z" />
<glyph unicode="k" horiz-adv-x="561" d="M157 241l261 259h93l-192 -190l210 -310h-86l-177 261l-109 -107v-154h-81v750h81v-509z" />
<glyph unicode="l" horiz-adv-x="331" d="M160 750v-604q0 -54 16 -74t51 -20q23 0 62 9l11 -57q-65 -14 -102 -14q-62 1 -90.5 36t-28.5 116v608h81z" />
<glyph unicode="m" horiz-adv-x="903" d="M138 500l7 -47q116 57 202 57q88 0 125 -61q125 61 211 61q69 0 110 -40t41 -125v-345h-81v332q0 115 -93 115q-62 0 -169 -50q7 -22 7 -53v-344h-81v332q0 115 -93 115q-62 0 -169 -49v-398h-81v500h64z" />
<glyph unicode="n" horiz-adv-x="605" d="M138 500l7 -52q129 61 221 61q78 0 124 -41.5t46 -122.5v-345h-81v325q0 122 -112 122q-71 0 -188 -54v-393h-81v500h64z" />
<glyph unicode="o" horiz-adv-x="586" d="M293 509q44 0 79 -6.5t60 -17.5t43.5 -29.5t29.5 -39t17.5 -48.5t9 -55.5t2.5 -62.5q0 -50 -5 -86t-20 -71t-41 -56t-69.5 -33.5t-105 -12.5t-105.5 12.5t-70 33.5t-40.5 56t-19.5 71t-5 86t5 86t19.5 71t40.5 56t70 33.5t105 12.5zM293 453q-52 0 -83.5 -11t-48 -38 t-22 -61.5t-5.5 -92.5t5.5 -92.5t22 -61.5t48 -38t83.5 -11t84 11t48.5 38t21.5 61.5t5 92.5t-5 92.5t-21.5 61.5t-48.5 38t-84 11z" />
<glyph unicode="p" horiz-adv-x="575" d="M141 500l4 -42q127 52 203 52q174 0 174 -259q0 -134 -45.5 -197.5t-142.5 -63.5q-70 0 -174 32v-202h-81v680h62zM160 405v-324q99 -28 158 -28q46 0 73 21t38.5 63.5t11.5 113.5q0 73 -13 117t-36 62t-59 18q-58 0 -173 -43z" />
<glyph unicode="q" horiz-adv-x="570" d="M415 -180v202q-104 -32 -174 -32q-65 0 -106.5 28.5t-61.5 85.5t-20 147q0 132 44.5 195.5t158.5 63.5q95 0 240 -47v-643h-81zM415 81v340q-99 27 -158 27q-68 0 -95.5 -45.5t-27.5 -151.5t27.5 -152t95.5 -46q59 0 158 28z" />
<glyph unicode="r" horiz-adv-x="386" d="M132 500l10 -67q60 77 156 77q27 0 69 -8l-12 -61q-26 7 -56 7q-89 0 -144 -73v-375h-81v500h58z" />
<glyph unicode="s" horiz-adv-x="517" d="M44 6l9 61q103 -17 182 -17q44 0 77 8t57.5 29.5t24.5 55.5q1 21 -5 35t-15.5 23t-31.5 15.5t-42.5 10t-59.5 9.5q-50 7 -77 12.5t-54 15t-39.5 23t-20 34t-7.5 50.5q0 40 15.5 68t45.5 43t67 21t87 6q23 0 48 -1.5t48 -4t39.5 -4.5t35 -5t22.5 -4l-10 -60 q-111 19 -176 19q-71 0 -105.5 -17t-34.5 -60q0 -35 28 -50t117 -26q60 -8 95 -17t62.5 -25.5t38.5 -42.5t11 -67q0 -44 -21.5 -75.5t-57.5 -48t-75.5 -23.5t-84.5 -7q-58 0 -193 16z" />
<glyph unicode="t" horiz-adv-x="473" d="M212 500h208v-62h-208v-287q0 -55 20 -77t61 -22q36 0 125 21l11 -57q-104 -26 -161 -26q-68 0 -103 37.5t-35 123.5v287h-117v62h117v153h82v-153z" />
<glyph unicode="u" horiz-adv-x="590" d="M150 500v-325q0 -122 112 -122q72 0 178 50v397h81v-500h-64l-7 47q-119 -56 -210 -56q-79 0 -125 41.5t-46 122.5v345h81z" />
<glyph unicode="v" horiz-adv-x="537" d="M319 0h-100l-200 500h83l167 -433l166 433h83z" />
<glyph unicode="w" horiz-adv-x="833" d="M651 0h-105l-129 406l-129 -406h-105l-164 500h83l134 -430l135 430h91l135 -430l135 430h82z" />
<glyph unicode="x" horiz-adv-x="548" d="M323 256l205 -256h-89l-168 208l-163 -208h-89l207 261l-192 239h90l153 -190l147 190h89z" />
<glyph unicode="y" horiz-adv-x="529" d="M264 78l163 422h83l-216 -541q-30 -78 -89 -111q-45 -25 -121 -39l-11 57q68 16 99 36q36 23 56 72l11 26h-22l-198 500h83z" />
<glyph unicode="z" horiz-adv-x="506" d="M455 457l-308 -395h319v-62h-429v43l309 395h-294v62h403v-43z" />
<glyph unicode="{" horiz-adv-x="400" d="M357 730v-63q-41 0 -65 -3.5t-43 -15.5t-26 -34.5t-7 -59.5v-132q0 -89 -58 -112q58 -23 58 -111v-133q0 -37 7 -59.5t26 -34.5t42.5 -15.5t65.5 -3.5v-63h-42q-91 1 -134 39.5t-43 135.5v133q0 45 -16.5 61t-57.5 16h-22v69h22q41 0 57.5 17t16.5 60v133q0 98 42.5 136 t135.5 40h41z" />
<glyph unicode="|" horiz-adv-x="168" d="M126 -120h-84v870h84v-870z" />
<glyph unicode="}" horiz-adv-x="400" d="M42 730l42 -1q93 -1 135 -39t42 -136v-133q0 -44 16.5 -60.5t57.5 -16.5h22v-69h-21q-41 0 -58 -16t-17 -61v-133q0 -97 -42.5 -135.5t-133.5 -39.5h-43v63q42 0 66 3.5t43 15.5t26 34t7 60v132q0 89 58 112q-58 22 -58 111v133q0 37 -7 59.5t-26 34t-43 15.5t-66 4v63z " />
<glyph unicode="~" horiz-adv-x="551" d="M76 294l-34 47q81 68 135 68q31 0 70 -15.5t73 -31t53 -15.5q37 0 101 54l34 -49q-18 -17 -58 -41t-69 -24q-24 0 -92.5 29.5t-105.5 29.5q-21 0 -49 -14t-39.5 -23t-18.5 -15z" />
<glyph unicode="&#xa1;" horiz-adv-x="172" d="M129 398h-86v120h86v-120zM128 -180h-84l8 510h69z" />
<glyph unicode="&#xa2;" horiz-adv-x="476" d="M291 574v-66q60 -3 142 -18l-10 -60q-103 19 -153 19q-83 0 -114.5 -45t-31.5 -154t31 -154t113 -45q49 0 155 19l10 -60q-84 -15 -142 -18v-66h-67v67q-100 7 -141 67.5t-41 189.5t41 189.5t141 67.5v67h67z" />
<glyph unicode="&#xa3;" horiz-adv-x="562" d="M118 402l-12 93q-2 16 -2 31q0 60 31 102.5t81 62t113 19.5q59 0 160 -20l-12 -67q-97 20 -148 20q-65 0 -103.5 -29t-38.5 -87q0 -11 2 -24l13 -101h258v-66h-248l13 -99q4 -35 4 -53q0 -36 -15 -64.5t-55 -52.5h361v-67h-478v67q61 27 83 54t22 65q0 17 -5 50l-13 100 h-87v66h76z" />
<glyph unicode="&#xa4;" horiz-adv-x="723" />
<glyph unicode="&#xa5;" horiz-adv-x="677" d="M446 374h121v-54h-150l-37 -62v-48h187v-53h-187v-157h-83v157h-187v53h187v48l-37 62h-150v54h121l-189 326h93l204 -366l204 366h92z" />
<glyph unicode="&#xa6;" horiz-adv-x="168" d="M126 380h-84v370h84v-370zM126 -120h-84v370h84v-370z" />
<glyph unicode="&#xa7;" horiz-adv-x="510" d="M43 -106l8 62q105 -17 177 -17q33 0 62 6t54.5 19t41 37t15.5 57q1 26 -6 44.5t-18 30.5t-35.5 20.5t-46 13.5t-61.5 11q-33 6 -55 10.5t-43 11t-34 14t-24 17.5t-16.5 23t-8.5 29.5t-3 38.5q0 96 82 124q-46 16 -64 42t-18 75q0 84 50 115.5t148 31.5q22 0 45.5 -1.5 t46 -4.5t37 -5t34 -5.5t20.5 -3.5l-9 -60q-103 19 -166 19q-70 0 -105 -19t-35 -66q0 -27 14 -42t43 -24t88 -18q39 -6 65 -12t51.5 -15.5t40.5 -21.5t27 -30.5t17.5 -42.5t5.5 -57q0 -72 -42 -116q42 -38 42 -125q0 -42 -14.5 -74.5t-37.5 -52.5t-55.5 -33t-64.5 -17.5 t-68 -4.5q-68 0 -185 16zM236 412l-23 4q-51 -4 -75 -24t-24 -63q0 -38 24 -54t100 -28q37 -6 54 -9.5t39 -10t38 -15.5q30 32 30 83q0 19 -4 34t-9.5 26t-17.5 19.5t-22.5 13.5t-31 10t-35.5 7.5t-43 6.5z" />
<glyph unicode="&#xa8;" horiz-adv-x="361" d="M120 610h-78v72h78v-72zM319 610h-78v72h78v-72z" />
<glyph unicode="&#xa9;" horiz-adv-x="804" d="M402 710q73 0 140 -28.5t115 -76.5t76.5 -115t28.5 -140q0 -98 -48 -181t-131 -131t-180.5 -48t-180.5 48t-131.5 131t-48.5 181t48.5 181t131.5 131t180 48zM402 655q-125 0 -214 -89.5t-89 -215t89 -214.5t214 -89q82 0 152 40.5t111 110.5t41 153q0 125 -89.5 214.5 t-214.5 89.5zM503 205l9 -46q-72 -15 -119 -15q-77 0 -117.5 47.5t-40.5 159.5q0 58 11 98.5t33 64t50 34t66 10.5q45 0 117 -16l-8 -46q-75 15 -106 15q-56 0 -81.5 -34.5t-25.5 -125.5q0 -62 12.5 -98t35 -49.5t59.5 -13.5q31 0 105 15z" />
<glyph unicode="&#xaa;" horiz-adv-x="358" d="M69 649l-6 41q80 16 122 16q133 0 133 -110v-208h-46l-2 26q-73 -32 -127 -32q-47 0 -74.5 25t-27.5 76.5t34.5 74.5t111.5 23q31 0 73 -4v19q0 66 -85 66q-27 0 -106 -13zM260 455v87q-42 4 -71 4q-39 0 -59.5 -7t-26.5 -19t-6 -33q0 -60 58 -60q42 0 105 28z" />
<glyph unicode="&#xab;" horiz-adv-x="512" d="M127 252l125 -176h-83l-127 176l127 176h83zM345 252l125 -176h-83l-126 176l126 176h83z" />
<glyph unicode="&#xac;" horiz-adv-x="723" />
<glyph unicode="&#xad;" horiz-adv-x="404" d="M362 258h-320v67h320v-67z" />
<glyph unicode="&#xae;" horiz-adv-x="804" d="M402 710q98 0 181 -48t131 -131t48 -181t-48 -181t-131 -131t-181 -48t-180.5 48t-131 131t-48.5 181q0 73 28.5 140t77 115t115 76.5t139.5 28.5zM402 655q-82 0 -152 -41t-110.5 -111t-40.5 -152q0 -126 89 -215t214 -89t214 89t89 214.5t-89 215t-214 89.5zM271 549 h165q47 0 76 -31t29 -86q0 -45 -18.5 -72t-51.5 -35l86 -167h-56l-78 157h-101v-157h-51v391zM323 506v-148h107q59 0 59 74t-59 74h-107z" />
<glyph unicode="&#xaf;" horiz-adv-x="415" d="M373 614h-331v59h331v-59z" />
<glyph unicode="&#xb0;" horiz-adv-x="415" d="M207.5 818q68.5 0 117 -48.5t48.5 -117t-48.5 -116.5t-117 -48t-117 48t-48.5 116.5t48.5 117t117 48.5zM207.5 758q-42.5 0 -73 -31t-30.5 -74.5t30.5 -74t73 -30.5t73 30.5t30.5 74t-30.5 74.5t-73 31z" />
<glyph unicode="&#xb1;" horiz-adv-x="534" d="M308 414h183v-67h-183v-153h-82v153h-184v67h184v153h82v-153zM491 0h-449v67h449v-67z" />
<glyph unicode="&#xb2;" horiz-adv-x="334" d="M50 634l-11 51q55 21 124 21q134 0 134 -111q0 -46 -23 -69.5t-88 -38.5q-47 -10 -65.5 -28t-18.5 -56v-43h196v-52h-261v92q0 61 34 93.5t101 46.5q39 8 49.5 18t10.5 37q0 23 -9 36.5t-24.5 18.5t-40.5 5q-47 0 -108 -21z" />
<glyph unicode="&#xb3;" horiz-adv-x="346" d="M293 658l-108 -119q14 2 27 2q10 0 19 -1q79 -14 79 -111q0 -66 -35 -96t-113 -30q-48 0 -126 11l9 50q92 -11 109 -11q53 1 72 18t19 58q0 40 -15 56.5t-45 16.5q-27 0 -74 -16l-20 37l117 126h-161v51h246v-42z" />
<glyph unicode="&#xb4;" horiz-adv-x="253" d="M107 580h-65l96 137h72z" />
<glyph unicode="&#xb6;" horiz-adv-x="580" d="M538 633h-65v-753h-63v753h-102v-753h-63v439h-32q-52 0 -89.5 21t-59.5 64.5t-22 105.5q0 90 46.5 140t126.5 50h323v-67z" />
<glyph unicode="&#xb7;" horiz-adv-x="171" d="M129 244h-87v120h87v-120z" />
<glyph unicode="&#xb8;" horiz-adv-x="324" d="M169 7l-35 -61q34 7 56 7q42 0 66.5 -20.5t24.5 -61.5q0 -47 -31 -68.5t-97 -21.5q-51 0 -111 13l15 42q59 -9 91 -9q46 0 63 10.5t17 36.5q0 24 -15 34.5t-45 10.5q-36 0 -83 -11l-11 20l40 79h55z" />
<glyph unicode="&#xb9;" horiz-adv-x="260" d="M224 308h-65v313l-90 -60l-33 46l141 93h47v-392z" />
<glyph unicode="&#xba;" horiz-adv-x="384" d="M192 706q48 0 79 -11t46 -34.5t20.5 -50t5.5 -66t-5.5 -66t-20.5 -50t-46 -35t-79 -11.5t-79 11.5t-46.5 35t-20.5 50t-5 66t5 66t20.5 50t46.5 34.5t79 11zM191.5 665q-58.5 0 -75.5 -25.5t-17 -95t17 -95.5t75.5 -26t76 26t17.5 95.5t-17.5 95t-76 25.5z" />
<glyph unicode="&#xbb;" horiz-adv-x="512" d="M252 252l-127 -176h-83l126 176l-126 176h83zM470 252l-126 -176h-83l125 176l-125 176h83z" />
<glyph unicode="&#xbc;" horiz-adv-x="894" d="M237 -17h-80l492 734h80zM230 308h-65v313l-90 -60l-33 46l142 93h46v-392zM800 151h52v-52h-52v-99h-62v99h-205v39l187 255h80v-242zM601 151h137v186z" />
<glyph unicode="&#xbd;" horiz-adv-x="905" d="M228 -17h-80l492 734h80zM230 308h-65v313l-90 -60l-33 46l142 93h46v-392zM615 326l-10 50q54 22 123 22q134 0 134 -111q0 -31 -9 -50.5t-33 -33.5t-69 -24q-47 -11 -65.5 -28.5t-18.5 -55.5v-44h196v-51h-261v91q0 42 17 70.5t45.5 44.5t72.5 25q27 6 39.5 12 t16.5 15.5t4 28.5q0 33 -18 46t-55 13q-48 0 -109 -20z" />
<glyph unicode="&#xbe;" horiz-adv-x="904" d="M247 -17h-80l493 734h79zM300 658l-109 -119q13 2 25 2q46 0 73 -27.5t27 -84.5q0 -66 -35 -96t-113 -30q-47 0 -126 11l9 50q92 -11 109 -11q53 1 72 18t19 58q0 40 -15 56.5t-45 16.5q-27 0 -74 -16l-19 37l116 126h-161v51h247v-42zM810 151h52v-52h-52v-99h-62v99 h-205v39l187 255h80v-242zM611 151h137v186z" />
<glyph unicode="&#xbf;" horiz-adv-x="497" d="M349 414h-86v118h86v-118zM348 346v-72q0 -27 -9 -50t-20.5 -37.5t-33 -30t-34.5 -22.5t-36 -18q-5 -3 -7 -4q-21 -10 -32.5 -17t-25 -19t-19 -27.5t-5.5 -35.5q0 -45 18 -72.5t48.5 -38t77.5 -10.5q68 1 172 29l12 -67q-95 -28 -186 -28q-51 0 -90.5 9t-71 30t-48 58 t-16.5 90q0 33 11 59t32.5 45.5t39 30t46.5 24.5q2 1 7 3q22 11 33 17.5t26 18.5t21.5 27.5t6.5 34.5v73h83z" />
<glyph unicode="&#xc0;" d="M414 781h-64l-103 136h72zM642 0h-89l-62 172h-309l-62 -172h-89l259 700h93zM202 239h269l-134 372z" />
<glyph unicode="&#xc1;" d="M310 780h-64l95 137h73zM642 0h-89l-62 172h-309l-62 -172h-89l259 700h93zM202 239h269l-134 372z" />
<glyph unicode="&#xc2;" d="M521 809l-37 -44l-148 103l-147 -103l-37 44l184 128zM642 0h-89l-62 172h-309l-62 -172h-89l259 700h93zM202 239h269l-134 372z" />
<glyph unicode="&#xc3;" d="M184 801l-30 41q64 54 106 54q31 0 83.5 -24t68.5 -24q29 0 79 42l30 -42q-8 -8 -23.5 -19t-39 -22t-39.5 -11q-19 0 -72 22.5t-81 22.5q-16 0 -37.5 -10.5t-30.5 -17.5t-14 -12zM643 0h-90l-62 172h-309l-62 -172h-89l259 700h93zM202 239h269l-134 372z" />
<glyph unicode="&#xc4;" d="M275 810h-77v72h77v-72zM474 810h-77v72h77v-72zM642 0h-89l-62 172h-309l-62 -172h-89l259 700h93zM202 239h269l-134 372z" />
<glyph unicode="&#xc5;" d="M335.5 954q42.5 0 72.5 -30t30 -72.5t-30 -72t-72.5 -29.5t-72 29.5t-29.5 72t29.5 72.5t72 30zM336 910q-24 0 -41 -17t-17 -41.5t17 -41.5t41 -17t41 17t17 41.5t-17 41.5t-41 17zM642 0h-89l-62 172h-309l-62 -172h-89l259 700h93zM202 239h269l-134 372z" />
<glyph unicode="&#xc6;" horiz-adv-x="823" d="M771 633h-351v-231h329v-66h-329v-269h356v-67h-439v172h-155l-62 -172h-89l259 700h481v-67zM202 239h135v372z" />
<glyph unicode="&#xc7;" horiz-adv-x="582" d="M208 -63l33 66q-88 24 -133 106.5t-45 241.5q0 101 18.5 171.5t55 111t84.5 58t114 18.5q79 0 200 -25l-12 -67q-122 25 -178 25q-68 0 -110 -25t-65.5 -90.5t-23.5 -177t23.5 -177t65.5 -90.5t110 -25q56 0 178 24l12 -66q-115 -23 -191 -23q-28 0 -54 3l-22 -41 q34 7 54 6q44 1 69.5 -20.5t23.5 -66.5q-1 -44 -32.5 -64t-95.5 -20q-51 0 -110 13l14 42q59 -9 91 -9q46 0 63 10.5t17 36.5q0 24 -15 34.5t-44 10.5q-37 0 -83 -11z" />
<glyph unicode="&#xc8;" horiz-adv-x="571" d="M368 781h-64l-104 136h73zM518 633h-351v-231h329v-66h-329v-269h357v-67h-440v700h434v-67z" />
<glyph unicode="&#xc9;" horiz-adv-x="571" d="M264 780h-64l95 137h73zM518 633h-351v-231h329v-66h-329v-269h357v-67h-440v700h434v-67z" />
<glyph unicode="&#xca;" horiz-adv-x="571" d="M475 809l-38 -44l-147 103l-147 -103l-37 44l184 128zM518 633h-351v-231h329v-66h-329v-269h357v-67h-440v700h434v-67z" />
<glyph unicode="&#xcb;" horiz-adv-x="571" d="M229 810h-77v72h77v-72zM428 810h-77v72h77v-72zM518 633h-351v-231h329v-66h-329v-269h357v-67h-440v700h434v-67z" />
<glyph unicode="&#xcc;" horiz-adv-x="239" d="M200 781h-64l-104 136h72zM164 0h-83v700h83v-700z" />
<glyph unicode="&#xcd;" horiz-adv-x="239" d="M95 780h-64l96 137h72zM164 0h-83v700h83v-700z" />
<glyph unicode="&#xce;" horiz-adv-x="239" d="M306 809l-37 -44l-147 103l-148 -103l-36 44l184 128zM164 0h-83v700h83v-700z" />
<glyph unicode="&#xcf;" horiz-adv-x="239" d="M61 810h-78v72h78v-72zM260 810h-78v72h78v-72zM164 0h-83v700h83v-700z" />
<glyph unicode="&#xd0;" horiz-adv-x="730" d="M133 700h240q61 0 108 -10.5t79 -33t53.5 -51t33 -70t16 -85t4.5 -100.5q0 -70 -6.5 -119.5t-25 -95.5t-51 -74t-85 -44.5t-126.5 -16.5h-240v317h-101v66h101v317zM217 633v-250h135v-66h-135v-250h156q54 0 91 10.5t60.5 31t36.5 56.5t17.5 78.5t4.5 106t-4.5 106 t-17.5 79t-36.5 56.5t-60.5 31t-91 11h-156z" />
<glyph unicode="&#xd1;" horiz-adv-x="700" d="M204 801l-30 41q64 54 106 54q31 0 83.5 -24t68.5 -24q29 0 79 42l30 -42q-15 -15 -47 -33.5t-55 -18.5q-19 0 -72 22.5t-81 22.5q-16 0 -37.5 -10.5t-31 -17.5t-13.5 -12zM621 0h-88l-371 562v-562h-83v700h88l371 -562v562h83v-700z" />
<glyph unicode="&#xd2;" horiz-adv-x="695" d="M427 781h-65l-103 136h72zM347.5 708q53.5 0 95.5 -9t71.5 -24.5t51 -41t34 -53.5t20 -67t10 -76.5t2.5 -87t-2.5 -87t-10 -76.5t-20 -67t-34 -53.5t-51 -41t-71.5 -24.5t-95.5 -9t-95 9t-71.5 24.5t-51.5 41t-34 53.5t-20 67t-10 76.5t-2.5 87t2.5 87t10 76.5t20 67 t34 53.5t51.5 41t71.5 24.5t95 9zM347.5 641q-38.5 0 -67.5 -5.5t-50.5 -16t-36 -29.5t-24 -40.5t-14.5 -54t-7 -66t-2 -80.5t2 -80t7 -65.5t14.5 -54t24 -40.5t36 -29.5t50.5 -16t67.5 -5.5t67.5 5.5t50.5 16t36.5 29.5t24 40.5t14 54t7 65.5t2 80t-2 80.5t-7 66t-14 54 t-24 40.5t-36.5 29.5t-50.5 16t-67.5 5.5z" />
<glyph unicode="&#xd3;" horiz-adv-x="695" d="M322 780h-64l95 137h73zM347.5 708q53.5 0 95.5 -9t71.5 -24.5t51 -41t34 -53.5t20 -67t10 -76.5t2.5 -87t-2.5 -87t-10 -76.5t-20 -67t-34 -53.5t-51 -41t-71.5 -24.5t-95.5 -9t-95 9t-71.5 24.5t-51.5 41t-34 53.5t-20 67t-10 76.5t-2.5 87t2.5 87t10 76.5t20 67 t34 53.5t51.5 41t71.5 24.5t95 9zM347.5 641q-38.5 0 -67.5 -5.5t-50.5 -16t-36 -29.5t-24 -40.5t-14.5 -54t-7 -66t-2 -80.5t2 -80t7 -65.5t14.5 -54t24 -40.5t36 -29.5t50.5 -16t67.5 -5.5t67.5 5.5t50.5 16t36.5 29.5t24 40.5t14 54t7 65.5t2 80t-2 80.5t-7 66t-14 54 t-24 40.5t-36.5 29.5t-50.5 16t-67.5 5.5z" />
<glyph unicode="&#xd4;" horiz-adv-x="695" d="M533 809l-37 -44l-148 103l-147 -103l-37 44l184 128zM347.5 708q53.5 0 95.5 -9t71.5 -24.5t51 -41t34 -53.5t20 -67t10 -76.5t2.5 -87t-2.5 -87t-10 -76.5t-20 -67t-34 -53.5t-51 -41t-71.5 -24.5t-95 -9q-38 0 -69.5 4t-57 13t-46.5 20.5t-36.5 28t-27.5 34t-20.5 41 t-14 46.5t-8.5 52.5t-4 57t-1 61.5q0 50 2.5 87.5t10 76.5t20 67t34 53.5t51.5 41t71.5 24.5t95 9zM347.5 641q-38.5 0 -67.5 -5.5t-50.5 -16t-36 -29.5t-24 -40.5t-14.5 -54t-7 -66t-2 -80.5t2 -80t7 -65.5t14.5 -54t24 -40.5t36 -29.5t50.5 -16t67.5 -5.5t67.5 5.5 t50.5 16t36.5 29.5t24 40.5t14 54t7 65.5t2 80t-2 80.5t-7 66t-14 54t-24 40.5t-36.5 29.5t-50.5 16t-67.5 5.5z" />
<glyph unicode="&#xd5;" horiz-adv-x="695" d="M196 801l-30 41q64 54 107 54q24 0 54 -12t56.5 -24t40.5 -12q29 0 79 42l30 -42q-15 -15 -47 -33.5t-55 -18.5q-19 0 -72 22.5t-81 22.5q-16 0 -37.5 -10.5t-30.5 -17.5t-14 -12zM347.5 708q53.5 0 95.5 -9t71.5 -24.5t51 -41t34 -53.5t20 -67t10 -76.5t2.5 -87 t-2.5 -87t-10 -76.5t-20 -67t-34 -53.5t-51 -41t-71.5 -24.5t-95.5 -9t-95 9t-71.5 24.5t-51.5 41t-34 53.5t-20 67t-10 76.5t-2.5 87t2.5 87t10 76.5t20 67t34 53.5t51.5 41t71.5 24.5t95 9zM347.5 641q-38.5 0 -67.5 -5.5t-50.5 -16t-36 -29.5t-24 -40.5t-14.5 -54t-7 -66 t-2 -80.5t2 -80t7 -65.5t14.5 -54t24 -40.5t36 -29.5t50.5 -16t67.5 -5.5t67.5 5.5t50.5 16t36.5 29.5t24 40.5t14 54t7 65.5t2 80t-2 80.5t-7 66t-14 54t-24 40.5t-36.5 29.5t-50.5 16t-67.5 5.5z" />
<glyph unicode="&#xd6;" horiz-adv-x="695" d="M288 810h-78v72h78v-72zM486 810h-77v72h77v-72zM347.5 708q53.5 0 95.5 -9t71.5 -24.5t51 -41t34 -53.5t20 -67t10 -76.5t2.5 -87t-2.5 -87t-10 -76.5t-20 -67t-34 -53.5t-51 -41t-71.5 -24.5t-95.5 -9t-95 9t-71.5 24.5t-51.5 41t-34 53.5t-20 67t-10 76.5t-2.5 87 t2.5 87t10 76.5t20 67t34 53.5t51.5 41t71.5 24.5t95 9zM347.5 641q-38.5 0 -67.5 -5.5t-50.5 -16t-36 -29.5t-24 -40.5t-14.5 -54t-7 -66t-2 -80.5t2 -80t7 -65.5t14.5 -54t24 -40.5t36 -29.5t50.5 -16t67.5 -5.5t67.5 5.5t50.5 16t36.5 29.5t24 40.5t14 54t7 65.5t2 80 t-2 80.5t-7 66t-14 54t-24 40.5t-36.5 29.5t-50.5 16t-67.5 5.5z" />
<glyph unicode="&#xd7;" horiz-adv-x="451" d="M226 339l135 134l47 -47l-134 -135l135 -135l-49 -49l-135 135l-135 -134l-47 47l135 135l-136 135l49 49z" />
<glyph unicode="&#xd8;" horiz-adv-x="695" d="M520 750l-23 -67q43 -19 70.5 -50.5t41 -77t18.5 -92.5t5 -114q0 -43 -2 -76.5t-7 -68.5t-14.5 -61.5t-24 -52t-36 -42.5t-50 -30.5t-66.5 -20t-84 -6.5q-43 0 -78 6l-16 -47h-78l22 67q-43 18 -70.5 49.5t-41 77t-18.5 92.5t-5 113q0 50 2.5 87.5t10 76.5t20 67t34 53.5 t51.5 41t71.5 24.5t95.5 9q42 0 77 -5l16 47h79zM220 85l184 553q-25 3 -56 3q-39 0 -68 -5.5t-50.5 -16t-36 -29.5t-24 -40.5t-14.5 -54t-7 -66t-2 -80.5q0 -114 15 -174.5t59 -89.5zM474 614l-183 -553q25 -3 57 -3q38 0 67 5.5t50.5 16t36.5 29.5t24 40.5t14 54t7 65.5 t2 80q0 57 -3 95.5t-10.5 73.5t-22.5 58t-39 38z" />
<glyph unicode="&#xd9;" horiz-adv-x="690" d="M424 781h-64l-104 136h72zM611 700v-387q0 -51 -2 -85.5t-8 -71t-17.5 -60t-31 -45.5t-47.5 -34t-67 -19t-90.5 -7t-90.5 7t-67 19t-47.5 34t-31 45.5t-17.5 60t-8 71t-2 85.5v387h83v-387q0 -43 1 -70t4 -55.5t8 -45t14.5 -33t22.5 -25t32 -15.5t42.5 -9t56 -2t56 2 t43 9t32 15.5t22 25t14.5 33t8 45t4 55.5t1 70v387h83z" />
<glyph unicode="&#xda;" horiz-adv-x="690" d="M319 780h-64l96 137h72zM611 700v-387q0 -51 -2 -85.5t-8 -71t-17.5 -60t-31 -45.5t-47.5 -34t-67 -19t-90.5 -7t-90.5 7t-67 19t-47.5 34t-31 45.5t-17.5 60t-8 71t-2 85.5v387h83v-387q0 -43 1 -70t4 -55.5t8 -45t14.5 -33t22.5 -25t32 -15.5t42.5 -9t56 -2t56 2t43 9 t32 15.5t22 25t14.5 33t8 45t4 55.5t1 70v387h83z" />
<glyph unicode="&#xdb;" horiz-adv-x="690" d="M530 809l-37 -44l-147 103l-148 -103l-37 44l185 128zM611 700v-387q0 -51 -2 -85.5t-8 -71t-17.5 -60t-31 -45.5t-47.5 -34t-67 -19t-90.5 -7t-90.5 7t-67 19t-47.5 34t-31 45.5t-17.5 60t-8 71t-2 85.5v387h83v-387q0 -43 1 -70t4 -55.5t8 -45t14.5 -33t22.5 -25 t32 -15.5t42.5 -9t56 -2t56 2t43 9t32 15.5t22 25t14.5 33t8 45t4 55.5t1 70v387h83z" />
<glyph unicode="&#xdc;" horiz-adv-x="690" d="M285 810h-78v72h78v-72zM484 810h-78v72h78v-72zM611 700v-387q0 -51 -2 -85.5t-8 -71t-17.5 -60t-31 -45.5t-47.5 -34t-67 -19t-90.5 -7t-90.5 7t-67 19t-47.5 34t-31 45.5t-17.5 60t-8 71t-2 85.5v387h83v-387q0 -43 1 -70t4 -55.5t8 -45t14.5 -33t22.5 -25t32 -15.5 t42.5 -9t56 -2t56 2t43 9t32 15.5t22 25t14.5 33t8 45t4 55.5t1 70v387h83z" />
<glyph unicode="&#xdd;" horiz-adv-x="654" d="M301 780h-64l95 137h72zM368 258v-258h-83v258l-254 442h92l204 -366l204 366h92z" />
<glyph unicode="&#xde;" horiz-adv-x="616" d="M167 582h207q89 0 141 -56t52 -159q0 -105 -52 -160t-141 -55h-207v-152h-83v750h83v-168zM168 515v-296h193q57 0 90 36.5t33 111.5q0 73 -32.5 110.5t-90.5 37.5h-193z" />
<glyph unicode="&#xdf;" horiz-adv-x="659" d="M80 0v537q0 83 64 128t191 45q66 0 115.5 -12t80 -35t45.5 -54.5t15 -71.5q0 -118 -122 -150q143 -28 141 -156v-68q1 -173 -271 -173q-22 0 -57 2l11 66q12 -1 42 -1q106 0 149 24t43 81v69q0 62 -43 90.5t-155 29.5v67q98 1 138.5 30t40.5 89q0 56 -40.5 81t-132.5 25 q-90 0 -130.5 -25t-40.5 -81v-537h-84z" />
<glyph unicode="&#xe0;" horiz-adv-x="559" d="M353 581h-64l-104 136h72zM94 427l-9 57q123 25 193 25q209 0 209 -175v-334h-62l-4 45q-123 -54 -212 -54q-49 0 -84 15.5t-56 52t-21 92.5q0 82 54 118t178 36q54 0 126 -7v36q0 114 -146 114q-47 0 -166 -21zM406 101v150q-72 7 -122 7q-49 0 -81 -6t-48.5 -20 t-22.5 -31.5t-6 -45.5q0 -103 101 -103q72 0 179 49z" />
<glyph unicode="&#xe1;" horiz-adv-x="559" d="M248 580h-64l96 137h72zM94 427l-9 57q123 25 193 25q209 0 209 -175v-334h-62l-4 45q-123 -54 -212 -54q-49 0 -84 15.5t-56 52t-21 92.5q0 82 54 118t178 36q54 0 126 -7v36q0 114 -146 114q-47 0 -166 -21zM406 101v150q-72 7 -122 7q-49 0 -81 -6t-48.5 -20 t-22.5 -31.5t-6 -45.5q0 -103 101 -103q72 0 179 49z" />
<glyph unicode="&#xe2;" horiz-adv-x="559" d="M459 609l-37 -44l-147 103l-148 -103l-37 44l185 128zM94 427l-9 57q123 25 193 25q209 0 209 -175v-334h-62l-4 45q-123 -54 -212 -54q-49 0 -84 15.5t-56 52t-21 92.5q0 82 54 118t178 36q54 0 126 -7v36q0 114 -146 114q-47 0 -166 -21zM406 101v150q-72 7 -122 7 q-49 0 -81 -6t-48.5 -20t-22.5 -31.5t-6 -45.5q0 -103 101 -103q72 0 179 49z" />
<glyph unicode="&#xe3;" horiz-adv-x="559" d="M122 601l-29 41q64 54 106 54q30 0 83 -24t68 -24q29 0 79 42l31 -42q-16 -15 -48 -33.5t-55 -18.5q-19 0 -72 22.5t-81 22.5q-10 0 -22 -4t-21.5 -9.5t-19 -12t-13.5 -9.5t-6 -5zM94 427l-9 57q123 25 193 25q209 0 209 -175v-334h-62l-4 45q-123 -54 -212 -54 q-49 0 -84 15.5t-56 52t-21 92.5q0 82 54 118t179 36q53 0 125 -7v36q0 114 -146 114q-47 0 -166 -21zM406 101v150q-72 7 -122 7q-49 0 -81 -6t-48.5 -20t-22.5 -31.5t-6 -45.5q0 -103 101 -103q72 0 179 49z" />
<glyph unicode="&#xe4;" horiz-adv-x="559" d="M214 610h-78v72h78v-72zM413 610h-78v72h78v-72zM94 427l-9 57q123 25 193 25q209 0 209 -175v-334h-62l-4 45q-123 -54 -212 -54q-49 0 -84 15.5t-56 52t-21 92.5q0 82 54 118t178 36q54 0 126 -7v36q0 114 -146 114q-47 0 -166 -21zM406 101v150q-72 7 -122 7 q-49 0 -81 -6t-48.5 -20t-22.5 -31.5t-6 -45.5q0 -103 101 -103q72 0 179 49z" />
<glyph unicode="&#xe5;" horiz-adv-x="559" d="M274 754q43 0 72.5 -30t29.5 -72.5t-29.5 -72t-72 -29.5t-72.5 29.5t-30 72.5q0 28 13.5 51.5t37 37t51.5 13.5zM274.5 710q-23.5 0 -41 -17t-17.5 -41.5t17 -41.5t41 -17t41 17t17 41.5t-17 41.5t-40.5 17zM94 427l-9 57q123 25 193 25q209 0 209 -175v-334h-62l-4 45 q-123 -54 -212 -54q-49 0 -84 15.5t-56 52t-21 92.5q0 82 54 118t178 36q54 0 126 -7v36q0 114 -146 114q-47 0 -166 -21zM406 101v150q-72 7 -122 7q-49 0 -81 -6t-48.5 -20t-22.5 -31.5t-6 -45.5q0 -103 101 -103q72 0 179 49z" />
<glyph unicode="&#xe6;" horiz-adv-x="947" d="M94 427l-9 57q123 25 193 25q156 0 189 -105q22 53 70 79t136 26q39 0 70.5 -4.5t54.5 -14.5t40 -22.5t28.5 -31.5t18.5 -37.5t10.5 -44.5t5 -49t1.5 -55v-27h-387q1 -87 37 -128t119 -41q80 0 204 34l12 -60q-133 -37 -224 -37q-131 0 -176 94v-85h-62l-4 45 q-123 -54 -212 -54q-49 0 -84 15.5t-56 52t-21 92.5q0 82 54 118t178 36q54 0 126 -7v36q0 114 -146 114q-47 0 -166 -21zM515 270h305q0 42 -2.5 68t-11 50.5t-24.5 37t-42.5 20t-66.5 7.5q-50 0 -81.5 -10.5t-48.5 -35t-22.5 -55.5t-5.5 -82zM406 101v150q-72 7 -122 7 q-65 0 -100.5 -12.5t-46.5 -33t-11 -57.5q0 -103 101 -103q72 0 179 49z" />
<glyph unicode="&#xe7;" horiz-adv-x="511" d="M173 -69l33 66q-82 16 -117.5 76.5t-35.5 176.5q0 140 52.5 200t175.5 60q73 0 185 -20l-11 -59q-109 19 -162 19q-47 0 -77.5 -11t-48.5 -36.5t-25.5 -61.5t-7.5 -90.5t7.5 -91t25.5 -61.5t48.5 -36t77.5 -11q53 0 162 19l11 -59q-86 -16 -156 -19q-14 -1 -28 -1t-26 1 l-22 -43q34 7 53 6q44 1 69.5 -20.5t23.5 -66.5q-1 -44 -32.5 -64t-95.5 -21q-42 0 -110 13l14 43q59 -9 92 -9q45 0 62 10.5t17 36.5q0 45 -61 45q-35 0 -81 -11z" />
<glyph unicode="&#xe8;" horiz-adv-x="566" d="M362 581h-65l-103 136h72zM495 88l12 -60q-133 -37 -225 -37q-79 0 -129.5 28t-75 85t-24.5 146q0 50 5 86t19.5 71t40.5 56t70 33.5t105 12.5q44 0 78.5 -6.5t58.5 -18t41 -30.5t27 -38.5t15 -48.5t7 -55t2 -62v-27h-387q1 -87 37 -128t119 -41q80 0 204 34zM134 270 h306q0 42 -2.5 68t-11 50.5t-24.5 37t-42.5 20t-66.5 7.5q-29 0 -51 -3.5t-39 -10.5t-29 -18.5t-19.5 -25.5t-12 -34t-6 -41t-2.5 -50z" />
<glyph unicode="&#xe9;" horiz-adv-x="566" d="M257 580h-64l95 137h73zM495 88l12 -60q-133 -37 -225 -37q-79 0 -129.5 28t-75 85t-24.5 146q0 50 5 86t19.5 71t40.5 56t70 33.5t105 12.5q44 0 78.5 -6.5t58.5 -18t41 -30.5t27 -38.5t15 -48.5t7 -55t2 -62v-27h-387q1 -87 37 -128t119 -41q80 0 204 34zM134 270h306 q0 42 -2.5 68t-11 50.5t-24.5 37t-42.5 20t-66.5 7.5q-29 0 -51 -3.5t-39 -10.5t-29 -18.5t-19.5 -25.5t-12 -34t-6 -41t-2.5 -50z" />
<glyph unicode="&#xea;" horiz-adv-x="566" d="M468 609l-37 -44l-148 103l-147 -103l-37 44l184 128zM495 88l12 -60q-133 -37 -225 -37q-79 0 -129.5 28t-75 85t-24.5 146q0 50 5 86t19.5 71t40.5 56t70 33.5t105 12.5q44 0 78.5 -6.5t58.5 -18t41 -30.5t27 -38.5t15 -48.5t7 -55t2 -62v-27h-387q1 -87 37 -128 t119 -41q80 0 204 34zM134 270h306q0 42 -2.5 68t-11 50.5t-24.5 37t-42.5 20t-66.5 7.5q-29 0 -51 -3.5t-39 -10.5t-29 -18.5t-19.5 -25.5t-12 -34t-6 -41t-2.5 -50z" />
<glyph unicode="&#xeb;" horiz-adv-x="566" d="M223 610h-78v72h78v-72zM421 610h-77v72h77v-72zM495 88l12 -60q-133 -37 -225 -37q-79 0 -129.5 28t-75 85t-24.5 146q0 50 5 86t19.5 71t40.5 56t70 33.5t105 12.5q44 0 78.5 -6.5t58.5 -18t41 -30.5t27 -38.5t15 -48.5t7 -55t2 -62v-27h-387q1 -87 37 -128t119 -41 q80 0 204 34zM134 270h306q0 42 -2.5 68t-11 50.5t-24.5 37t-42.5 20t-66.5 7.5q-29 0 -51 -3.5t-39 -10.5t-29 -18.5t-19.5 -25.5t-12 -34t-6 -41t-2.5 -50z" />
<glyph unicode="&#xec;" horiz-adv-x="234" d="M195 581h-64l-104 136h73zM160 0h-81v500h81v-500z" />
<glyph unicode="&#xed;" horiz-adv-x="234" d="M91 580h-64l95 137h73zM160 0h-81v500h81v-500z" />
<glyph unicode="&#xee;" horiz-adv-x="234" d="M302 609l-38 -44l-147 103l-147 -103l-37 44l184 128zM160 0h-81v500h81v-500z" />
<glyph unicode="&#xef;" horiz-adv-x="234" d="M56 610h-77v72h77v-72zM255 610h-77v72h77v-72zM160 0h-81v500h81v-500z" />
<glyph unicode="&#xf0;" horiz-adv-x="617" d="M534 695l-53 -36q59 -57 59 -147v-326q0 -39 -14 -73t-42 -62t-76 -44.5t-112 -16.5q-63 0 -111 16.5t-76 44.5t-42 62t-14 73v93q0 88 59.5 141t166.5 53q125 0 178 -77v116q0 66 -37 106l-117 -79l-28 42l100 68q-35 16 -84 16q-37 0 -99 -11l-10 59q54 11 110 11 q86 0 146 -33l68 47zM457 186v93q0 130 -161 130q-160 0 -160 -130v-93q0 -129 160 -129q161 0 161 129z" />
<glyph unicode="&#xf1;" horiz-adv-x="605" d="M152 601l-30 41q64 54 106 54q31 0 83.5 -24t68.5 -24q29 0 79 42l30 -42q-15 -15 -47 -33.5t-55 -18.5q-19 0 -72 22.5t-81 22.5q-16 0 -37.5 -10.5t-31 -17.5t-13.5 -12zM138 500l7 -52q129 61 221 61q78 0 124 -41.5t46 -122.5v-345h-81v325q0 122 -112 122 q-71 0 -188 -54v-393h-81v500h64z" />
<glyph unicode="&#xf2;" horiz-adv-x="586" d="M372 581h-64l-104 136h72zM293 509q44 0 79 -6.5t60 -17.5t43.5 -29.5t29.5 -39t17.5 -48.5t9 -55.5t2.5 -62.5q0 -50 -5 -86t-20 -71t-41 -56t-69.5 -33.5t-105 -12.5t-105.5 12.5t-70 33.5t-40.5 56t-19.5 71t-5 86t5 86t19.5 71t40.5 56t70 33.5t105 12.5zM293 453 q-52 0 -83.5 -11t-48 -38t-22 -61.5t-5.5 -92.5t5.5 -92.5t22 -61.5t48 -38t83.5 -11t84 11t48.5 38t21.5 61.5t5 92.5t-5 92.5t-21.5 61.5t-48.5 38t-84 11z" />
<glyph unicode="&#xf3;" horiz-adv-x="586" d="M267 580h-64l96 137h72zM293 509q44 0 79 -6.5t60 -17.5t43.5 -29.5t29.5 -39t17.5 -48.5t9 -55.5t2.5 -62.5q0 -50 -5 -86t-20 -71t-41 -56t-69.5 -33.5t-105 -12.5t-105.5 12.5t-70 33.5t-40.5 56t-19.5 71t-5 86t5 86t19.5 71t40.5 56t70 33.5t105 12.5zM293 453 q-52 0 -83.5 -11t-48 -38t-22 -61.5t-5.5 -92.5t5.5 -92.5t22 -61.5t48 -38t83.5 -11t84 11t48.5 38t21.5 61.5t5 92.5t-5 92.5t-21.5 61.5t-48.5 38t-84 11z" />
<glyph unicode="&#xf4;" horiz-adv-x="586" d="M478 609l-37 -44l-148 103l-147 -103l-37 44l184 128zM293 509q44 0 79 -6.5t60 -17.5t43.5 -29.5t29.5 -39t17.5 -48.5t9 -55.5t2.5 -62.5q0 -50 -5 -86t-20 -71t-41 -56t-69.5 -33.5t-105 -12.5t-105.5 12.5t-70 33.5t-40.5 56t-19.5 71t-5 86t5 86t19.5 71t40.5 56 t70 33.5t105 12.5zM293 453q-52 0 -83.5 -11t-48 -38t-22 -61.5t-5.5 -92.5t5.5 -92.5t22 -61.5t48 -38t83.5 -11t84 11t48.5 38t21.5 61.5t5 92.5t-5 92.5t-21.5 61.5t-48.5 38t-84 11z" />
<glyph unicode="&#xf5;" horiz-adv-x="586" d="M141 601l-30 41q65 54 107 54q30 0 83 -24t68 -24q29 0 79 42l30 -42q-15 -15 -47 -33.5t-55 -18.5q-19 0 -72 22.5t-81 22.5q-10 0 -22.5 -4t-22 -9.5t-18.5 -12t-13 -9.5t-6 -5zM293 509q44 0 79 -6.5t60 -17.5t43.5 -29.5t29.5 -39t17.5 -48.5t9 -55.5t2.5 -62.5 q0 -50 -5 -86t-20 -71t-41 -56t-69.5 -33.5t-105 -12.5t-105.5 12.5t-70 33.5t-40.5 56t-19.5 71t-5 86t5 86t19.5 71t40.5 56t70 33.5t105 12.5zM293 453q-52 0 -83.5 -11t-48 -38t-22 -61.5t-5.5 -92.5t5.5 -92.5t22 -61.5t48 -38t83.5 -11t84 11t48.5 38t21.5 61.5 t5 92.5t-5 92.5t-21.5 61.5t-48.5 38t-84 11z" />
<glyph unicode="&#xf6;" horiz-adv-x="586" d="M233 610h-78v72h78v-72zM432 610h-78v72h78v-72zM293 509q44 0 79 -6.5t60 -17.5t43.5 -29.5t29.5 -39t17.5 -48.5t9 -55.5t2.5 -62.5q0 -50 -5 -86t-20 -71t-41 -56t-69.5 -33.5t-105 -12.5t-105.5 12.5t-70 33.5t-40.5 56t-19.5 71t-5 86t5 86t19.5 71t40.5 56t70 33.5 t105 12.5zM293 453q-52 0 -83.5 -11t-48 -38t-22 -61.5t-5.5 -92.5t5.5 -92.5t22 -61.5t48 -38t83.5 -11t84 11t48.5 38t21.5 61.5t5 92.5t-5 92.5t-21.5 61.5t-48.5 38t-84 11z" />
<glyph unicode="&#xf7;" horiz-adv-x="571" d="M331 448h-87v71h87v-71zM529 244h-487v66h487v-66zM331 35h-86v71h86v-71z" />
<glyph unicode="&#xf8;" horiz-adv-x="586" d="M422 550l-18 -55q40 -12 66.5 -34.5t40 -56t18.5 -69t5 -85.5t-5 -86t-20 -71t-41 -56t-69.5 -33.5t-105.5 -12.5q-29 0 -55 3l-14 -44h-60l18 55q-40 12 -66.5 34.5t-39.5 56t-18 69t-5 85.5t5 86t19.5 71t40.5 56t70 33.5t105 12.5q30 0 55 -3l15 44h59zM201 62 l129 390q-17 1 -37 1q-52 0 -83.5 -11t-48 -38t-22 -61.5t-5.5 -92.5q0 -83 13.5 -126.5t53.5 -61.5zM385 438l-129 -390q17 -1 37 -1q52 0 84 11t48.5 38t21.5 61.5t5 92.5q0 83 -13.5 126.5t-53.5 61.5z" />
<glyph unicode="&#xf9;" horiz-adv-x="590" d="M373 581h-64l-104 136h73zM150 500v-325q0 -122 112 -122q72 0 178 50v397h81v-500h-64l-7 47q-119 -56 -210 -56q-79 0 -125 41.5t-46 122.5v345h81z" />
<glyph unicode="&#xfa;" horiz-adv-x="590" d="M269 580h-64l95 137h73zM150 500v-325q0 -122 112 -122q72 0 178 50v397h81v-500h-64l-7 47q-119 -56 -210 -56q-79 0 -125 41.5t-46 122.5v345h81z" />
<glyph unicode="&#xfb;" horiz-adv-x="590" d="M479 609l-37 -44l-147 103l-147 -103l-37 44l184 128zM150 500v-325q0 -122 112 -122q72 0 178 50v397h81v-500h-64l-7 47q-119 -56 -210 -56q-79 0 -125 41.5t-46 122.5v345h81z" />
<glyph unicode="&#xfc;" horiz-adv-x="590" d="M234 610h-77v72h77v-72zM433 610h-78v72h78v-72zM150 500v-325q0 -122 112 -122q72 0 178 50v397h81v-500h-64l-7 47q-119 -56 -210 -56q-79 0 -125 41.5t-46 122.5v345h81z" />
<glyph unicode="&#xfd;" horiz-adv-x="529" d="M238 580h-64l96 137h72zM264 78l163 422h83l-216 -541q-30 -78 -89 -111q-45 -25 -121 -39l-11 57q68 16 99 36q36 23 56 72l11 26h-22l-198 500h83z" />
<glyph unicode="&#xfe;" horiz-adv-x="578" d="M163 750v-286q119 46 188 46q174 0 174 -259q0 -134 -45.5 -197.5t-142.5 -63.5q-70 0 -174 32v-202h-81v930h81zM163 405v-324q99 -28 158 -28q68 0 95.5 46t27.5 152q0 107 -27 152t-81 45q-58 0 -173 -43z" />
<glyph unicode="&#xff;" horiz-adv-x="529" d="M204 610h-78v72h78v-72zM403 610h-78v72h78v-72zM264 78l163 422h83l-216 -541q-30 -78 -89 -111q-45 -25 -121 -39l-11 57q68 16 99 36q36 23 56 72l11 26h-22l-198 500h83z" />
<glyph unicode="&#x152;" horiz-adv-x="1054" d="M567 0v112q-24 -61 -75.5 -91t-143.5 -30q-54 0 -95.5 9t-71.5 24.5t-51.5 41t-34 53.5t-20 67t-10 76.5t-2.5 87t2.5 87t10 76.5t20 67t34 53.5t51.5 41t71.5 24.5t95.5 9q92 0 143.5 -30t75.5 -91v113h435v-67h-351v-231h328v-66h-328v-269h356v-67h-440zM347.5 641 q-38.5 0 -67.5 -5.5t-50.5 -16t-36 -29.5t-24 -40.5t-14.5 -54t-7 -66t-2 -80.5t2 -80t7 -65.5t14.5 -54t24 -40.5t36 -29.5t50.5 -16t67.5 -5.5t67.5 5.5t50.5 16t36.5 29.5t24 40.5t14 54t7 65.5t2 80t-2 80.5t-7 66t-14 54t-24 40.5t-36.5 29.5t-50.5 16t-67.5 5.5z" />
<glyph unicode="&#x153;" horiz-adv-x="974" d="M903 88l11 -60q-132 -37 -224 -37q-77 0 -122.5 29t-67.5 88q-19 -59 -67 -88t-140 -29q-61 0 -105 12.5t-70 33.5t-40.5 56t-19.5 71t-5 86t5 86t19.5 71t40.5 56t70 33.5t105 12.5q90 0 137 -28t67 -85q13 37 36.5 61.5t65 38t102.5 13.5q44 0 78.5 -6.5t58.5 -18 t41 -30.5t26.5 -38.5t15 -48.5t7 -55t1.5 -62v-27h-386q0 -87 36.5 -128t118.5 -41q81 0 205 34zM293 453q-52 0 -83.5 -11t-48 -38t-22 -61.5t-5.5 -92.5t5.5 -92.5t22 -61.5t48 -38t83.5 -11t84 11t48.5 38t21.5 61.5t5 92.5t-5 92.5t-21.5 61.5t-48.5 38t-84 11zM542 270 h306q0 42 -2.5 68t-11 50.5t-24.5 37t-43 20t-66 7.5q-50 0 -81.5 -10.5t-48.5 -35t-23 -55.5t-6 -82z" />
<glyph unicode="&#x178;" horiz-adv-x="654" d="M266 810h-78v72h78v-72zM465 810h-78v72h78v-72zM368 258v-258h-83v258l-254 442h92l204 -366l204 366h92z" />
<glyph unicode="&#x2c6;" horiz-adv-x="453" d="M411 609l-37 -44l-147 103l-148 -103l-37 44l185 128z" />
<glyph unicode="&#x2dc;" horiz-adv-x="452" d="M72 601l-30 41q65 54 107 54q30 0 82.5 -24t68.5 -24q30 0 79 42l30 -42q-15 -15 -47 -33.5t-55 -18.5q-19 0 -72 22.5t-81 22.5q-16 0 -37.5 -10.5t-30.5 -17.5t-14 -12z" />
<glyph unicode="&#x2000;" horiz-adv-x="477" />
<glyph unicode="&#x2001;" horiz-adv-x="954" />
<glyph unicode="&#x2002;" horiz-adv-x="477" />
<glyph unicode="&#x2003;" horiz-adv-x="954" />
<glyph unicode="&#x2004;" horiz-adv-x="318" />
<glyph unicode="&#x2005;" horiz-adv-x="238" />
<glyph unicode="&#x2006;" horiz-adv-x="159" />
<glyph unicode="&#x2007;" horiz-adv-x="159" />
<glyph unicode="&#x2008;" horiz-adv-x="119" />
<glyph unicode="&#x2009;" horiz-adv-x="190" />
<glyph unicode="&#x200a;" horiz-adv-x="53" />
<glyph unicode="&#x2010;" horiz-adv-x="404" d="M362 258h-320v67h320v-67z" />
<glyph unicode="&#x2011;" horiz-adv-x="404" d="M362 258h-320v67h320v-67z" />
<glyph unicode="&#x2012;" horiz-adv-x="404" d="M362 258h-320v67h320v-67z" />
<glyph unicode="&#x2013;" horiz-adv-x="489" d="M446 258h-404v67h404v-67z" />
<glyph unicode="&#x2014;" horiz-adv-x="581" d="M538 258h-496v67h496v-67z" />
<glyph unicode="&#x2018;" horiz-adv-x="212" d="M126 562h-84l54 206h73z" />
<glyph unicode="&#x2019;" horiz-adv-x="212" d="M116 562h-74l44 206h83z" />
<glyph unicode="&#x201a;" horiz-adv-x="212" d="M116 -91h-74l44 206h83z" />
<glyph unicode="&#x201c;" horiz-adv-x="401" d="M126 562h-84l54 206h73zM315 562h-84l54 206h73z" />
<glyph unicode="&#x201d;" horiz-adv-x="401" d="M116 562h-74l44 206h83zM305 562h-74l44 206h83z" />
<glyph unicode="&#x201e;" horiz-adv-x="401" d="M116 -91h-74l44 206h83zM305 -91h-74l44 206h83z" />
<glyph unicode="&#x2022;" horiz-adv-x="223" d="M103 351h17q60 0 60 -60v-18q0 -60 -60 -60h-17q-61 0 -61 60v18q0 60 61 60z" />
<glyph unicode="&#x2026;" horiz-adv-x="636" d="M128 0h-86v120h86v-120zM361 0h-86v120h86v-120zM593 0h-86v120h86v-120z" />
<glyph unicode="&#x202f;" horiz-adv-x="190" />
<glyph unicode="&#x2039;" horiz-adv-x="294" d="M126 252l126 -176h-83l-127 176l127 176h83z" />
<glyph unicode="&#x203a;" horiz-adv-x="294" d="M252 252l-127 -176h-83l126 176l-126 176h83z" />
<glyph unicode="&#x205f;" horiz-adv-x="238" />
<glyph unicode="&#x20ac;" horiz-adv-x="640" d="M70 455h62q18 138 84.5 196t181.5 59q78 0 200 -25l-12 -67q-122 25 -179 25q-84 0 -130.5 -42.5t-58.5 -145.5h334v-52h-342q-1 -25 -1 -54q0 -21 1 -38h314v-52h-307q10 -111 56.5 -156t133.5 -45q56 0 179 24l12 -66q-122 -25 -200 -25q-118 1 -184.5 62t-82.5 207 h-89v51h84l-1 40q0 28 2 52h-57v52z" />
<glyph unicode="&#x2122;" horiz-adv-x="822" d="M330 653h-116v-345h-59v345h-116v47h291v-47zM779 308h-58v292l-124 -238h-38l-124 238v-292h-58v392h67l134 -258l134 258h67v-392z" />
<glyph unicode="&#x25fc;" horiz-adv-x="500" d="M0 500h500v-500h-500v500z" />
<glyph unicode="&#xfb03;" horiz-adv-x="1072" d="M119 500v28q0 124 73 162q37 20 98 20q50 0 128 -14l-10 -57q-62 9 -91 9q-33 0 -55 -9q-31 -9 -46 -35t-15 -76v-28h335v28q0 124 73 162q37 20 98 20q50 0 127 -14l-10 -57q-61 9 -90 9q-34 0 -56 -9q-20 -6 -33 -18.5t-20.5 -35.5t-7.5 -57v-28h379v-500h-81v438h-298 v-438h-81v438h-335v-438h-82v438h-97v62h97zM998 592h-85v103h85v-103z" />
<glyph unicode="&#xfb04;" horiz-adv-x="1165" d="M994 700v-554q0 -54 15.5 -74t50.5 -20q23 0 63 9l10 -57q-65 -14 -102 -14q-62 1 -90 36t-28 116v497h-89q-61 9 -90 9q-34 0 -56 -9q-20 -6 -33 -18.5t-20.5 -35.5t-7.5 -57v-28h186v-62h-186v-438h-81v438h-335v-438h-82v438h-97v62h97v28q0 124 73 162q37 20 98 20 q50 0 128 -14l-10 -57q-62 9 -91 9q-33 0 -55 -9q-31 -9 -46 -35t-15 -76v-28h335v28q0 124 73 162q37 20 98 20q41 0 103 -10h184z" />
</font>
</defs>
</svg>
